<?xml version="1.0" standalone="no"?>
<!DOCTYPE svg PUBLIC "-//W3C//DTD SVG 1.1//EN" "http://www.w3.org/Graphics/SVG/1.1/DTD/svg11.dtd" >
<svg xmlns="http://www.w3.org/2000/svg" xmlns:xlink="http://www.w3.org/1999/xlink" version="1.1">
<metadata>
Created by FontForge 20190801 at Mon Feb  7 17:39:01 2022
 By www-data
Copyright (c) Font Awesome
</metadata>
<defs>
<font id="fav4compatibility" horiz-adv-x="512" >
  <font-face 
    font-family="fav4compatibility"
    font-weight="400"
    font-stretch="normal"
    units-per-em="512"
    panose-1="2 0 5 3 0 0 0 0 0 0"
    ascent="448"
    descent="-64"
    bbox="-1 -64.25 576 448.25"
    underline-thickness="25"
    underline-position="-48"
    unicode-range="U+F041-F27A"
  />
<missing-glyph horiz-adv-x="384" 
d="M352 448h-320q-14 0 -23 -9t-9 -23v-448q0 -14 9 -23t23 -9h320q14 0 23 9t9 23v448q0 14 -9 23t-23 9v0zM320 326v-268l-90 134l90 134v0zM192 250l-90 134h180l-90 -134v0zM154 192l-90 -134v268l90 -134v0zM192 134l90 -134h-180l90 134v0z" />
    <glyph glyph-name=".notdef" horiz-adv-x="384" 
d="M352 448h-320q-14 0 -23 -9t-9 -23v-448q0 -14 9 -23t23 -9h320q14 0 23 9t9 23v448q0 14 -9 23t-23 9v0zM320 326v-268l-90 134l90 134v0zM192 250l-90 134h180l-90 -134v0zM154 192l-90 -134v268l90 -134v0zM192 134l90 -134h-180l90 134v0z" />
    <glyph glyph-name=".null" horiz-adv-x="0" 
 />
    <glyph glyph-name="nonmarkingreturn" horiz-adv-x="170" 
 />
    <glyph glyph-name="location-dot" unicode="&#xf041;" horiz-adv-x="384" 
d="M168 -51q-27 33 -67 89v0q-39 55 -69 114v0q-30 59 -32 104q2 82 56 136t136 56q82 -2 136 -56t56 -136q-2 -45 -32 -104q-31 -59 -70 -114q-39 -56 -66 -89q-10 -12 -24 -12t-24 12v0v0zM192 192q27 1 45 19v0q18 18 19 45q-1 27 -19 45t-45 19q-27 -1 -45 -19t-19 -45
q1 -27 19 -45t45 -19v0z" />
    <glyph glyph-name="up-down-left-right" unicode="&#xf047;" 
d="M512 192q0 -11 -8 -18l-80 -72q-7 -6 -16 -6q-5 0 -10 2q-13 7 -14 22v40h-96v-96h40q15 -1 22 -14q6 -14 -4 -26l-72 -80q-7 -8 -19 -8q-11 0 -18 8l-71 80q-10 12 -4 26q7 13 22 14h39v96h-95v-40q-1 -15 -14 -22q-5 -2 -10 -2q-9 0 -16 6l-80 72q-8 7 -8 18t8 18
l80 72q12 9 26 4q13 -7 14 -22v-40h95v96h-39q-15 1 -22 14q-6 14 4 26l71 80q8 8 18 8q11 0 18 -8l72 -80q10 -12 4 -26q-7 -13 -22 -14h-40v-96h97v40q1 15 14 22q14 5 26 -4l80 -72q8 -7 8 -18v0z" />
    <glyph glyph-name="up-right-and-down-left-from-center" unicode="&#xf065;" 
d="M208 167q-10 9 -23 9v0q-12 0 -22 -9l-78 -78l-30 30q-10 9 -23 9q-6 0 -12 -2q-19 -9 -20 -30v-135q2 -23 24 -25h136q21 1 30 20q7 19 -7 35l-30 30l78 78q9 10 9 22q0 13 -9 23l-23 23v0zM487 448h-136q-21 -1 -29 -20t6 -35l31 -30l-79 -78q-9 -10 -9 -22
q0 -13 9 -23l23 -23q10 -9 23 -9q12 0 22 9l78 78l30 -30q16 -14 35 -7q20 9 21 31v136q-2 21 -25 23v0z" />
    <glyph glyph-name="down-left-and-up-right-to-center" unicode="&#xf066;" 
d="M215 176h-136q-21 -1 -29 -20q-6 -19 7 -35l30 -30l-78 -78q-9 -10 -9 -22q0 -13 9 -23l23 -23q10 -9 23 -9q12 0 22 9l78 78l30 -30q10 -9 23 -9q6 0 12 2q19 9 20 30v136q-2 22 -25 24v0zM296 208h136q21 1 30 20q7 19 -7 35l-30 30l78 78q9 10 9 22q0 13 -9 23l-23 23
q-10 9 -23 9q-12 0 -22 -9l-78 -78l-30 30q-16 14 -35 7q-19 -9 -20 -30v-135q2 -23 24 -25v0z" />
    <glyph glyph-name="up-down" unicode="&#xf07d;" horiz-adv-x="256" 
d="M250 56l-104 -112q-8 -8 -18 -8t-18 8l-103 112q-10 11 -4 26q6 13 21 14h56v192h-56q-15 1 -22 14q-6 15 4 26l104 112q8 8 18 8t18 -8l104 -112q10 -11 4 -26q-7 -13 -22 -14h-56v-192h56q15 -1 22 -14q6 -15 -4 -26v0z" />
    <glyph glyph-name="left-right" unicode="&#xf07e;" 
d="M503 174l-112 -104q-12 -10 -26 -4q-14 7 -14 22v56h-192v-56q-1 -15 -15 -22q-14 -6 -26 4l-112 104q-7 8 -7 18t7 18l112 104q12 10 26 4q15 -7 16 -22v-55h192v56q0 15 14 22q14 5 26 -5l112 -104q7 -7 7 -18q0 -10 -8 -18v0z" />
    <glyph glyph-name="chart-column" unicode="&#xf080;" 
d="M32 416q14 0 23 -9v0q9 -9 9 -23v-336q1 -15 16 -16h400q14 0 23 -9t9 -23t-9 -23t-23 -9h-400q-34 1 -57 23q-22 23 -23 57v336q0 14 9 23t23 9v0zM160 224q14 0 23 -9v0q9 -9 9 -23v-64q0 -14 -9 -23t-23 -9t-23 9t-9 23v64q0 14 9 23t23 9v0zM288 128q0 -14 -9 -23v0
q-9 -9 -23 -9t-23 9t-9 23v160q0 14 9 23t23 9t23 -9t9 -23v-160v0zM352 256q14 0 23 -9v0q9 -9 9 -23v-96q0 -14 -9 -23t-23 -9t-23 9t-9 23v96q0 14 9 23t23 9v0zM480 128q0 -14 -9 -23v0q-9 -9 -23 -9t-23 9t-9 23v224q0 14 9 23t23 9t23 -9t9 -23v-224v0z" />
    <glyph glyph-name="right-from-bracket" unicode="&#xf08b;" 
d="M96 -32h64q14 0 23 9t9 23t-9 23t-23 9h-64q-14 0 -23 9t-9 23v256q0 14 9 23t23 9h64q14 0 23 9t9 23t-9 23t-23 9h-64q-41 -1 -68 -28t-28 -68v-256q1 -41 28 -68t68 -28v0zM505 209l-144 136q-12 11 -26 5q-14 -7 -15 -22v-72h-128q-14 0 -23 -9t-9 -23v-64
q0 -14 9 -23t23 -9h128v-71q1 -15 15 -22q14 -6 26 4l144 136q7 7 7 17t-7 17v0z" />
    <glyph glyph-name="up-right-from-square" unicode="&#xf08e;" 
d="M384 128q-14 0 -23 -9v0q-9 -9 -9 -23v-96h-288v288h96q14 0 23 9t9 23t-9 23t-23 9h-96q-27 -1 -45 -19t-19 -45v-288q1 -27 19 -45t45 -19h288q27 1 45 19t19 45v96q0 14 -9 23t-23 9v0zM488 448h-136q-21 -1 -30 -20q-7 -19 7 -35l42 -41l-202 -201q-9 -10 -9 -23
t9 -23q10 -9 23 -9t23 9l201 202l41 -42q16 -14 35 -7q19 9 20 30v136q-2 22 -24 24v0z" />
    <glyph glyph-name="right-to-bracket" unicode="&#xf090;" 
d="M345 209l-144 136q-12 11 -26 5q-14 -7 -15 -22v-72h-128q-14 0 -23 -9t-9 -23v-64q0 -14 9 -23t23 -9h128v-72q1 -15 15 -22q14 -6 26 5l144 136q7 7 7 17t-7 17v0zM416 416h-64q-14 0 -23 -9t-9 -23t9 -23t23 -9h64q14 0 23 -9t9 -23v-256q0 -14 -9 -23t-23 -9h-64
q-14 0 -23 -9t-9 -23t9 -23t23 -9h64q41 1 68 28t28 68v256q-1 41 -28 68t-68 28v0z" />
    <glyph glyph-name="facebook-f" unicode="&#xf09a;" horiz-adv-x="320" 
d="M279 160l14 93h-89v60q0 20 12 34q11 15 41 16h40v79q-1 0 -23 3q-21 3 -49 3q-55 0 -88 -32q-32 -32 -33 -93v-70h-81v-93h81v-224h100v224h75z" />
    <glyph glyph-name="earth-americas" unicode="&#xf0ac;" 
d="M512 192q-1 -72 -35 -129v0q-34 -58 -92 -92v0q-57 -34 -129 -35q-72 1 -129 35q-58 34 -92 92q-34 57 -35 129q1 72 35 129q34 58 92 92q57 34 129 35q72 -1 129 -35q58 -34 92 -92q34 -57 35 -129v0zM58 256l9 -17q13 -23 38 -30l57 -17q29 -9 30 -38v-40q1 -18 16 -25
q15 -10 16 -27v-39q0 -12 9 -19q9 -6 21 -3q25 8 33 33l2 11q7 27 31 41l8 4q23 14 24 42v8q0 20 -14 34l-4 4q-14 14 -34 15h-44q-16 0 -31 7l-34 20q-7 4 -9 11q-5 16 10 25l6 3q10 5 20 1l24 -7q14 -4 22 7q7 12 -1 23l-14 16q-15 21 1 41l15 19q14 17 4 37l-3 4h-10
q-71 -1 -124 -41q-53 -39 -74 -103v0v0zM438 293l-26 -10q-12 -5 -17 -16t-1 -24l16 -50q6 -17 23 -21l29 -8q2 14 2 28q-1 56 -26 101v0v0z" />
    <glyph glyph-name="bars-progress" unicode="&#xf0ae;" 
d="M464 384q20 -1 34 -14v0q13 -14 14 -34v-64q-1 -20 -14 -34q-14 -13 -34 -14h-416q-20 1 -34 14q-13 14 -14 34v64q1 20 14 34q14 13 34 14h416v0zM448 320h-128v-32h128v32v0zM464 160q20 -1 34 -14v0q13 -14 14 -34v-64q-1 -20 -14 -34q-14 -13 -34 -14h-416
q-20 1 -34 14q-13 14 -14 34v64q1 20 14 34q14 13 34 14h416v0zM192 96v-32h256v32h-256v0z" />
    <glyph glyph-name="maximize" unicode="&#xf0b2;" horiz-adv-x="448" 
d="M447 129v-135q-2 -22 -23 -23h-135q-21 1 -30 19q-7 19 7 35l30 30l-72 69l-71 -71l30 -30q14 -16 7 -35q-9 -19 -30 -19h-136q-21 2 -23 23v135q1 21 20 30q5 3 11 3q13 0 23 -9l30 -30l71 71l-71 71l-30 -30q-16 -14 -35 -7q-19 9 -20 31v135q2 21 23 23h135
q21 -1 30 -20q4 -5 3 -10v0q0 -13 -9 -23l-29 -31l71 -71l71 71l-30 30q-14 16 -7 35q9 19 30 20h135q22 -2 23 -23v-135q-1 -21 -20 -30q-18 -7 -34 7l-30 30l-72 -71l72 -72l30 30q15 14 34 7q21 -11 21 -30v0z" />
    <glyph glyph-name="wand-magic-sparkles" unicode="&#xf0d0;" horiz-adv-x="576" 
d="M249 443q2 5 7 5t7 -5l14 -38l38 -14q5 -2 5 -7t-5 -7l-38 -14l-14 -38q-2 -5 -7 -5t-7 5l-14 38l-39 14q-4 2 -4 7t4 7l39 14l14 38v0zM427 434q15 14 34 14v0q20 0 34 -14l35 -35q14 -14 14 -34q0 -19 -14 -34l-381 -381q-15 -14 -34 -14q-20 0 -34 14l-35 35
q-14 14 -14 34q0 19 14 34l381 381v0zM461 389l-105 -105l24 -24l105 105l-24 24v0zM7 331l57 21l21 57q3 7 11 7t11 -7l21 -57l57 -21q7 -3 7 -11t-7 -11l-57 -21l-21 -57q-3 -7 -11 -7t-11 7l-21 57l-57 21q-7 3 -7 11t7 11v0zM360 75l56 21l21 56q3 8 11 8t11 -8l21 -56
l57 -21q7 -3 7 -11t-7 -11l-57 -21l-21 -57q-3 -7 -11 -7t-11 7l-21 57l-56 21q-8 3 -8 11t8 11v0z" />
    <glyph glyph-name="money-bill-1" unicode="&#xf0d6;" horiz-adv-x="576" 
d="M252 240q1 19 20 20h16q18 -1 20 -20v-68h4q18 -1 20 -20q-2 -18 -20 -20h-48q-19 2 -20 20q1 19 20 20h4v48q-15 4 -16 20v0zM512 384q27 -1 45 -19v0q18 -18 19 -45v-256q-1 -27 -19 -45t-45 -19h-448q-27 1 -45 19t-19 45v256q1 27 19 45t45 19h448v0zM128 64
q-1 27 -19 45v0q-18 18 -45 19v-64h64v0zM64 256q27 1 45 19v0q18 18 19 45h-64v-64v0zM512 64v64q-27 -1 -45 -19t-19 -45h64v0zM512 320h-64q1 -27 19 -45t45 -19v64v0zM288 304q-48 -1 -79 -33v0q-32 -31 -33 -79q1 -48 33 -79q31 -32 79 -33q48 1 79 33q32 31 33 79
q-1 48 -33 79q-31 32 -79 33v0z" />
    <glyph glyph-name="gauge-high" unicode="&#xf0e4;" 
d="M512 192q-1 -72 -35 -129v0q-34 -58 -92 -92v0q-57 -34 -129 -35q-72 1 -129 35q-58 34 -92 92q-34 57 -35 129q1 72 35 129q34 58 92 92q57 34 129 35q72 -1 129 -35q58 -34 92 -92q34 -57 35 -129v0zM256 384q-14 0 -23 -9v0q-9 -9 -9 -23t9 -23t23 -9t23 9t9 23t-9 23
t-23 9v0zM256 32q27 1 45 19v0q18 18 19 45q-1 27 -18 45l63 145q8 21 -11 32q-21 7 -32 -12l-64 -146h-1l-1 1q-27 -1 -45 -19q-18 -19 -19 -46q1 -27 19 -45t45 -19v0v0zM144 336q-14 0 -23 -9v0q-9 -9 -9 -23t9 -23t23 -9t23 9t9 23t-9 23t-23 9v0zM96 160q14 0 23 9v0
q9 9 9 23t-9 23t-23 9t-23 -9t-9 -23t9 -23t23 -9v0zM416 224q-14 0 -23 -9v0q-9 -9 -9 -23t9 -23t23 -9t23 9t9 23t-9 23t-23 9v0z" />
    <glyph glyph-name="right-left" unicode="&#xf0ec;" 
d="M32 288h320v-72q1 -15 14 -22q15 -6 26 4l112 104q8 8 8 18t-8 18l-112 104q-11 10 -26 4q-13 -7 -14 -22v-72h-320q-14 0 -23 -9t-9 -22t9 -23t23 -10v0zM480 96h-320v73q-1 15 -14 22q-15 4 -26 -5l-112 -104q-8 -8 -8 -18t8 -18l112 -104q11 -10 26 -4q13 7 14 22v72
h320q14 0 23 9t9 23t-9 23t-23 9v0z" />
    <glyph glyph-name="tablet-screen-button" unicode="&#xf10a;" horiz-adv-x="448" 
d="M384 448h-320q-27 -1 -45 -19t-19 -45v-384q1 -27 19 -45q18 -17 45 -18h320q27 1 45 19q18 17 19 44v384q-1 27 -19 45t-45 19v0zM224 -32q-14 0 -23 9v0q-9 9 -9 23t9 23t23 9t23 -9t9 -23t-9 -23t-23 -9v0zM384 64h-320v320h320v-320v0z" />
    <glyph glyph-name="mobile-screen-button" unicode="&#xf10b;" horiz-adv-x="384" 
d="M304 448h-224q-27 -1 -45 -19t-19 -45v-384q1 -27 19 -45t45 -19h224q27 1 45 19t19 45v384q-1 27 -19 45t-45 19v0zM192 -32q-14 0 -23 9v0q-9 9 -9 23t9 23t23 9t23 -9t9 -23t-9 -23t-23 -9v0zM304 384v-320h-224v320h224v0z" />
    <glyph glyph-name="star-half-stroke" unicode="&#xf123;" horiz-adv-x="576" 
d="M378 293l153 -23q15 -2 20 -16q4 -14 -6 -24l-111 -110l26 -156q2 -14 -10 -23q-13 -8 -25 -2l-137 73l-138 -73q-12 -6 -24 2q-12 9 -11 23l27 156l-111 110q-10 10 -6 24q5 14 19 16l154 23l68 141q7 13 22 14q15 -1 22 -14l68 -141v0zM287 63q7 0 12 -3l105 -56
l-20 120q-2 12 7 21l86 85l-118 17q-13 3 -18 14l-54 108v-306v0z" />
    <glyph glyph-name="unlock" unicode="&#xf13e;" horiz-adv-x="448" 
d="M144 256h240q27 -1 45 -19t19 -45v-192q-1 -27 -19 -45t-45 -19h-320q-27 1 -45 19t-19 45v192q1 27 19 45t45 19h16v48q2 61 42 102q41 40 102 42q44 -1 78 -23t52 -59q6 -13 1 -25q-4 -12 -17 -18q-12 -5 -24 -1t-18 16q-10 21 -29 33q-19 13 -43 13q-34 -1 -57 -23
q-22 -23 -23 -57v-48v0z" />
    <glyph glyph-name="turn-up" unicode="&#xf148;" horiz-adv-x="384" 
d="M318 302q-7 -13 -22 -14h-72v-272q-1 -34 -23 -57q-23 -22 -57 -23h-112q-14 0 -23 9t-9 23t9 23t23 9h112q15 1 16 16v272l-72 1q-15 1 -22 14q-6 14 4 25l104 112q8 8 18 8t18 -8l104 -112q10 -11 4 -26v0z" />
    <glyph glyph-name="turn-down" unicode="&#xf149;" horiz-adv-x="384" 
d="M314 56l-104 -112q-8 -8 -18 -8t-18 8l-104 112q-10 11 -4 26q7 13 22 14h72v272q-1 15 -16 16h-112q-14 0 -23 9t-9 23t9 23t23 9h112q34 -1 57 -23q22 -23 23 -57v-272h72q15 -1 22 -14q6 -15 -4 -26v0z" />
    <glyph glyph-name="square-up-right" unicode="&#xf14c;" horiz-adv-x="448" 
d="M384 416h-320q-27 -1 -45 -19t-19 -45v-320q1 -27 19 -45t45 -19h320q27 1 45 19t19 45v320q-1 27 -19 45t-45 19v0zM331 124q-1 -10 -10 -15q-10 -3 -18 4l-45 45l-68 -68q-10 -9 -23 -9q-12 0 -22 9l-23 23q-9 10 -9 23q0 12 9 23l68 68l-45 44q-7 8 -4 18q5 9 15 9
h158q15 -1 16 -15v-159h1z" />
    <glyph glyph-name="indian-rupee-sign" unicode="&#xf156;" horiz-adv-x="320" 
d="M0 384q0 14 9 23v0q9 9 23 9h256q14 0 23 -9t9 -23t-9 -23t-23 -9h-56q14 -22 20 -48h36q14 0 23 -9t9 -23t-9 -23t-23 -9h-36q-10 -44 -43 -74t-79 -37l145 -102q10 -9 12 -22q3 -12 -5 -24q-8 -10 -21 -12q-12 -3 -24 5l-224 160q-17 15 -11 36q8 21 30 22h80
q25 0 44 13q20 13 29 35h-153q-14 0 -23 9t-9 23t9 23t23 9h153q-9 22 -29 35q-19 13 -44 13h-80q-14 0 -23 9t-9 23v0v0z" />
    <glyph glyph-name="arrow-down-z-a" unicode="&#xf15e;" 
d="M104 -22q10 -10 24 -10v0q14 0 24 10l87 96q9 10 8 23q0 13 -10 22q-11 9 -23 9q-13 -1 -22 -11l-32 -35v302q0 14 -9 23t-23 9t-23 -9t-9 -23v-302l-32 35q-10 11 -24 11q-12 0 -22 -9q-9 -9 -10 -22t8 -23l88 -96v0zM320 352h51l-74 -73q-14 -16 -7 -35q9 -19 30 -20
h127q31 3 33 32q0 14 -9 23t-23 9h-51l74 73q14 16 7 35q-9 19 -31 20h-127q-14 0 -23 -9t-9 -23t9 -23t23 -9v0zM493 15l-80 160q-10 16 -29 16t-29 -16l-80 -160q-5 -13 -1 -25t16 -18t24 -2t19 16l7 14h88l7 -14q5 -10 17 -16q12 -5 26 2q12 6 16 18t-1 25v0zM368 57
l16 32l16 -32h-32v0z" />
    <glyph glyph-name="arrow-down-short-wide" unicode="&#xf160;" horiz-adv-x="576" 
d="M320 224h96q14 0 23 9t9 23t-9 23t-23 9h-95q-14 0 -23 -9t-9 -23t9 -23q8 -9 22 -9v0zM320 96h160q14 0 23 9t9 23t-9 23t-23 9h-159q-14 0 -23 -9t-9 -23t9 -23q8 -9 22 -9v0zM320 352h32q14 0 22 9q9 9 9 23t-9 23t-22 9h-32q-14 0 -23 -9t-9 -23t9 -23t23 -9v0z
M544 32h-223q-14 0 -23 -9t-9 -23t9 -23t23 -9h223q14 0 23 9t9 23t-9 23t-23 9v0zM192 117l-32 -35v302q0 14 -9 23t-23 9t-23 -9t-9 -23v-302l-32 35q-10 11 -24 11q-12 0 -22 -9q-9 -9 -10 -22t8 -23l88 -96q9 -10 23 -10t24 10l87 96q9 10 8 23q0 13 -10 22q-9 9 -22 9
q-12 -1 -22 -11v0z" />
    <glyph glyph-name="arrow-down-wide-short" unicode="&#xf161;" horiz-adv-x="576" 
d="M416 160h-95q-14 0 -23 -9t-9 -23t9 -23t23 -9h95q14 0 23 9t9 23t-9 23t-23 9v0zM544 416h-223q-14 0 -23 -9t-9 -23t9 -23t23 -9h223q14 0 23 9t9 23t-9 23t-23 9v0zM352 32h-32q-14 0 -23 -9t-9 -23t9 -23t23 -9h32q14 0 22 9q9 9 9 23t-9 23q-8 9 -22 9v0zM480 288
h-159q-14 0 -23 -9t-9 -23t9 -23t23 -9h159q14 0 23 9t9 23t-9 23t-23 9v0zM192 117l-32 -35v302q0 14 -9 23t-23 9t-23 -9t-9 -23v-302l-32 35q-10 11 -24 11q-12 0 -22 -9q-9 -9 -10 -22t8 -23l88 -96q9 -10 23 -10t24 10l87 96q9 10 8 23q0 13 -10 22q-9 9 -22 9
q-12 -1 -22 -11v0z" />
    <glyph glyph-name="arrow-down-9-1" unicode="&#xf163;" 
d="M216 128q-14 0 -24 -11l-32 -35v302q0 14 -9 23t-23 9t-23 -9t-9 -23v-302l-32 35q-10 10 -23 11q-12 0 -23 -9q-9 -9 -10 -22t8 -23l88 -96q9 -10 23 -10t24 10l87 96q9 10 8 23q0 13 -10 22q-8 9 -20 9v0zM358 247l-8 -8q-8 -9 -8 -20t9 -20q8 -7 19 -7q12 0 20 8
q16 17 29 29q34 35 48 54q14 20 13 45q-1 37 -26 62t-62 26q-37 -1 -62 -26t-26 -62q0 -28 15 -49q15 -22 39 -32v0zM392 352q22 -2 24 -24q-2 -22 -24 -24q-22 2 -24 24q2 22 24 24v0zM416 32v96q-1 17 -15 27q-16 9 -32 1l-32 -17q-12 -6 -15 -18q-4 -12 2 -25
q9 -17 28 -17v-47q-14 -1 -23 -10t-9 -22q0 -14 9 -23t23 -9h64q14 0 23 9t9 23q0 13 -9 22t-23 10v0z" />
    <glyph glyph-name="down-long" unicode="&#xf175;" horiz-adv-x="320" 
d="M282 56l-104 -112q-8 -8 -18 -8t-18 8l-104 112q-10 11 -4 26q7 13 21 14h73v320q0 14 9 23t23 9t23 -9t9 -23v-320h72q15 -1 22 -14q6 -15 -4 -26v0z" />
    <glyph glyph-name="up-long" unicode="&#xf176;" horiz-adv-x="320" 
d="M285 302q-7 -13 -21 -14h-72v-320q0 -14 -9 -23t-23 -9t-23 9t-9 23v320h-73q-15 1 -22 14q-5 15 5 26l104 112q7 8 17 8t18 -8l104 -112q11 -11 4 -26v0z" />
    <glyph glyph-name="left-long" unicode="&#xf177;" 
d="M512 192q0 -14 -9 -23v0q-9 -9 -23 -9h-320v-72q-1 -15 -14 -22q-15 -6 -26 4l-112 104q-8 8 -8 18t8 18l112 104q11 10 26 4q13 -7 14 -21v-73h320q14 0 23 -9t9 -23v0z" />
    <glyph glyph-name="right-long" unicode="&#xf178;" 
d="M504 174l-112 -104q-11 -10 -26 -4q-14 7 -14 21v73h-320q-14 0 -23 9q-9 10 -9 24q3 29 32 31h320v72q1 15 14 22q15 6 26 -4l112 -104q8 -8 8 -18t-8 -18v0z" />
    <glyph glyph-name="turkish-lira-sign" unicode="&#xf195;" horiz-adv-x="384" 
d="M96 416q14 0 23 -9v0q9 -9 9 -23v-35l119 34q13 3 25 -3q11 -6 15 -19q3 -13 -3 -25q-6 -11 -19 -15l-137 -39v-29l119 34q13 3 25 -3q11 -6 15 -19q3 -13 -3 -25q-6 -11 -19 -15l-137 -39v-154h64q52 1 88 35t40 87v8q1 13 11 22q9 8 23 8q13 -1 22 -11q8 -9 7 -23l1 -8
q-6 -78 -60 -129t-132 -53h-96q-14 0 -23 9t-9 23v168l-23 -7q-13 -3 -25 3q-11 6 -15 19q-3 13 3 25q6 11 19 15l41 11v30l-23 -7q-13 -3 -25 3q-11 6 -15 19q-3 13 3 25q6 11 19 15l41 11v54q0 14 9 23t23 9v0v0z" />
    <glyph glyph-name="trash-can" unicode="&#xf1f8;" horiz-adv-x="448" 
d="M135 430q9 17 29 18h120q20 -1 29 -18l7 -14h96q14 0 23 -9t9 -23t-9 -23t-23 -9h-384q-14 0 -23 9t-9 23t9 23t23 9h96l7 14v0zM31 320h385v-320q-1 -27 -19 -45t-45 -19h-257q-27 1 -45 19t-19 45v320v0zM111 240v-224q2 -15 16 -16q15 1 16 16v224q-1 15 -16 16
q-14 -1 -16 -16v0zM207 240v-224q2 -15 16 -16q16 1 17 16v224q-1 15 -17 16q-14 -1 -16 -16v0zM304 240v-224q1 -15 16 -16q15 1 16 16v224q-1 15 -16 16q-15 -1 -16 -16v0z" />
    <glyph glyph-name="gem" unicode="&#xf219;" 
d="M508 252l-104 153q-8 11 -20 11h-257q-11 0 -19 -11l-103 -153q-9 -16 2 -30l232 -246q7 -8 17 -8t17 8l232 246q12 14 3 30v0zM383 351l63 -95h-140l77 95v0zM256 269l-78 99h156l-78 -99v0zM130 351l75 -95h-140l65 95v0zM256 27l-171 181h342l-171 -181v0z" />
    <glyph glyph-name="hourglass-empty" unicode="&#xf250;" horiz-adv-x="384" 
d="M0 416q0 14 9 23v0q9 9 23 9h320q14 0 23 -9t9 -23t-9 -23t-23 -9v-11q-1 -66 -47 -113l-68 -68l68 -68q46 -47 47 -113v-11q14 0 23 -9t9 -23t-9 -23t-23 -9h-320q-14 0 -23 9t-9 23t9 23t23 9v11q1 66 47 113l68 68l-68 68q-46 47 -47 113v11q-14 0 -23 9t-9 23v0z
M96 384v-11q1 -40 28 -68l68 -68l68 68q27 28 28 68v11h-192v0zM96 0h192v11q-1 39 -28 68l-68 68l-68 -68q-27 -29 -28 -68v-11v0z" />
    <glyph glyph-name="hourglass" unicode="&#xf252;" horiz-adv-x="384" 
d="M352 448q14 0 23 -9v0q9 -9 9 -23t-9 -23t-23 -9v-11q-1 -66 -47 -113l-68 -68l68 -68q46 -47 47 -113v-11q14 0 23 -9t9 -23t-9 -23t-23 -9h-320q-14 0 -23 9t-9 23t9 23t23 9v11q1 66 47 113l68 68l-68 68q-46 47 -47 113v11q-14 0 -23 9t-9 23t9 23t23 9h320v0z
M111 320h161q16 24 16 53v11h-192v-11q0 -29 15 -53v0zM111 64h161q-5 8 -12 15l-68 68l-68 -68q-6 -6 -11 -13l-2 -2v0v0z" />
    <glyph glyph-name="comment-dots" unicode="&#xf27a;" 
d="M256 417q-71 -1 -129 -28v0q-57 -28 -91 -75v0q-34 -47 -35 -105q2 -76 57 -131q-12 -39 -32 -66q-20 -28 -23 -30q-3 -3 -1 -8t7 -5q50 1 85 18q36 17 55 33q50 -19 108 -19q71 1 129 28q57 28 91 75q34 46 35 104q-1 58 -35 105t-92 75q-57 28 -129 29v0zM127 177
q-14 0 -23 9v0q-9 9 -9 22t9 22q9 10 23 10t23 -9t9 -23q-2 -29 -32 -31v0zM256 177q-14 0 -22 9v0q-9 9 -9 22t9 22q9 10 22 10t22 -9t9 -23q-2 -29 -31 -31v0zM383 177q-14 0 -23 9v0q-9 9 -9 22t9 22q9 10 23 10t23 -9t9 -23q-2 -29 -32 -31v0z" />
  </font>
</defs>
</svg>
