<?xml version="1.0" standalone="no"?>
<!DOCTYPE svg PUBLIC "-//W3C//DTD SVG 1.1//EN" "http://www.w3.org/Graphics/SVG/1.1/DTD/svg11.dtd" >
<svg xmlns="http://www.w3.org/2000/svg" xmlns:xlink="http://www.w3.org/1999/xlink" version="1.1">
<metadata>
Created by FontForge 20190801 at Tue Aug  1 17:26:53 2023
 By www-data
Copyright (c) Font Awesome
</metadata>
<defs>
<font id="FontAwesome6FreeSolid900" horiz-adv-x="512" >
  <font-face 
    font-family="FontAwesome6FreeSolid900"
    font-weight="900"
    font-stretch="normal"
    units-per-em="512"
    panose-1="2 0 9 3 0 0 0 0 0 0"
    ascent="448"
    descent="-64"
    x-height="414"
    bbox="-8.25 -66.7 640.636 449.036"
    underline-thickness="25"
    underline-position="-74"
    unicode-range="U+0020-1FAC1"
  />
<missing-glyph horiz-adv-x="384" 
d="M64 58v268l90 -134zM102 0l90 134l90 -134h-180zM230 192l90 134v-268zM282 384l-90 -134l-90 134h180zM0 400v-416q0 -20 14 -34t34 -14h288q20 0 34 14t14 34v416q0 20 -14 34t-34 14h-288q-20 0 -34 -14t-14 -34z" />
    <glyph glyph-name="exclamation" unicode="exclamation" horiz-adv-x="64" 
d="M64 384v-256q0 -13 -9.5 -22.5t-22.5 -9.5t-22.5 9.5t-9.5 22.5v256q0 13 9.5 22.5t22.5 9.5t22.5 -9.5t9.5 -22.5zM32 -32q-23 0 -34.5 20t0 40t34.5 20t34.5 -20t0 -40t-34.5 -20z" />
    <glyph glyph-name="hashtag" unicode="hashtag" horiz-adv-x="448" 
d="M181 415.5q-13 2.5 -23.5 -5.5t-13.5 -21l-11 -69h-69q-13 0 -22.5 -9.5t-9.5 -22.5t9.5 -22.5t22.5 -9.5h58l-21 -128h-69q-13 0 -22.5 -9.5t-9.5 -22.5t9.5 -22.5t22.5 -9.5h58l-10 -59q-1 -8 2 -16t9.5 -13.5t15 -7t16.5 1.5t13.5 9.5t7.5 15.5l11 69h95l-10 -59
q-2 -13 6 -23.5t21 -13t23.5 5.5t13.5 21l11 69h69q13 0 22.5 9.5t9.5 22.5t-9.5 22.5t-22.5 9.5h-58l21 128h69q13 0 22.5 9.5t9.5 22.5t-9.5 22.5t-22.5 9.5h-58l10 59q2 13 -6 23.5t-21 13t-23.5 -5.5t-13.5 -21l-11 -69h-95l10 59q2 13 -6 23.5t-21 13zM187 256h95
l-21 -128h-95z" />
    <glyph glyph-name="dollar-sign" unicode="dollar&#x2d;sign" horiz-adv-x="320" 
d="M160 448q-9 0 -16 -4.5t-11.5 -11.5t-4.5 -16v-35q-24 -4 -43 -11q-59 -23 -69 -76q-6 -33 7 -59q11 -24 35 -40q26 -17 90 -34l3 -1q56 -15 74 -26q9 -6 13 -13q3 -8 1 -21q-4 -19 -27 -28q-29 -13 -76 -6q-41 7 -75 22q-12 5 -24.5 0.5t-18 -16.5t-0.5 -24.5t17 -18.5
q42 -18 91 -26h1h1v-35q0 -13 9.5 -22.5t22.5 -9.5t22.5 9.5t9.5 22.5v33q24 3 44 11q56 23 66 77q6 33 -6 59q-11 23 -36 40q-26 16 -90 33l-3 1q-56 15 -73 26q-10 7 -13 14q-4 7 -1 20q3 18 28 28q33 13 79 6l47 -8q13 -3 24 4.5t13.5 20.5t-5 24t-20.5 14l-48 8l-1 1h-5
v36q0 13 -9.5 22.5t-22.5 9.5z" />
    <glyph glyph-name="percent" unicode="percentage" horiz-adv-x="384" 
d="M375 329l-320 -320q-10 -9 -23 -9t-22.5 9.5t-9.5 22.5t9 23l320 320q10 9 23 9t22.5 -9.5t9.5 -22.5t-9 -23zM128 320q0 -37 -32 -55q-15 -9 -32 -9t-32 9q-32 18 -32 55t32 55q15 9 32 9t32 -9q32 -18 32 -55zM384 64q0 -17 -8.5 -32t-23.5 -23q-32 -19 -64 -0.5
t-32 55.5t32 55.5t64 0t32 -55.5z" />
    <glyph glyph-name="asterisk" unicode="asterisk" horiz-adv-x="384" 
d="M192 416q-13 0 -22.5 -9.5t-9.5 -22.5v-136l-112 68q-11 6 -24 3t-19.5 -14.5t-3.5 -24.5t15 -19l114 -69l-114 -68q-12 -7 -15 -20t3.5 -24.5t19.5 -14.5t24 4l112 67v-136q0 -13 9.5 -22.5t22.5 -9.5t22.5 9.5t9.5 22.5v136l112 -68q11 -6 24 -3t19.5 14.5t3.5 24.5
t-15 19l-114 69l114 68q12 7 15 20t-3.5 24.5t-19.5 14.5t-24 -4l-112 -67v136q0 13 -9.5 22.5t-22.5 9.5z" />
    <glyph glyph-name="plus" unicode="add" horiz-adv-x="448" 
d="M256 368v-144h144q13 0 22.5 -9.5t9.5 -22.5t-9.5 -22.5t-22.5 -9.5h-144v-144q0 -13 -9.5 -22.5t-22.5 -9.5t-22.5 9.5t-9.5 22.5v144h-144q-13 0 -22.5 9.5t-9.5 22.5t9.5 22.5t22.5 9.5h144v144q0 13 9.5 22.5t22.5 9.5t22.5 -9.5t9.5 -22.5z" />
    <glyph glyph-name="hyphen" unicode="hyphen" horiz-adv-x="320" 
d="M0 192q0 -13 9.5 -22.5t22.5 -9.5h256q13 0 22.5 9.5t9.5 22.5t-9.5 22.5t-22.5 9.5h-256q-13 0 -22.5 -9.5t-9.5 -22.5z" />
    <glyph glyph-name="less-than" unicode="less&#x2d;than" horiz-adv-x="384" 
d="M381 366q-6 12 -18.5 16.5t-24.5 -1.5l-320 -160q-18 -9 -18 -29t18 -29l320 -160q12 -6 24.5 -1.5t18.5 16.5t1.5 24.5t-16.5 18.5l-262 131l262 131q12 6 16.5 18.5t-1.5 24.5z" />
    <glyph glyph-name="equals" unicode="equals" horiz-adv-x="448" 
d="M48 320h352q13 0 22.5 -9.5t9.5 -22.5t-9.5 -22.5t-22.5 -9.5h-352q-13 0 -22.5 9.5t-9.5 22.5t9.5 22.5t22.5 9.5zM48 128h352q13 0 22.5 -9.5t9.5 -22.5t-9.5 -22.5t-22.5 -9.5h-352q-13 0 -22.5 9.5t-9.5 22.5t9.5 22.5t22.5 9.5z" />
    <glyph glyph-name="greater-than" unicode="greater&#x2d;than" horiz-adv-x="384" 
d="M3 366q6 12 18.5 16.5t24.5 -1.5l320 -160q18 -9 18 -29t-18 -29l-320 -160q-12 -6 -24.5 -1.5t-18.5 16.5t-1.5 24.5t16.5 18.5l262 131l-262 131q-12 6 -16.5 18.5t1.5 24.5zM3 366z" />
    <glyph glyph-name="question" unicode="question" horiz-adv-x="320" 
d="M80 288q0 -13 -9.5 -22.5t-22.5 -9.5t-22.5 9.5t-9.5 22.5q0 53 37.5 90.5t90.5 37.5h32q53 0 90.5 -37.5t37.5 -90.5v-4q0 -32 -15.5 -61t-43.5 -46l-42 -27q-11 -8 -11 -21v-1q0 -13 -9.5 -22.5t-22.5 -9.5t-22.5 9.5t-9.5 22.5v2q0 48 40 74l43 27q29 18 29 53v4
q0 26 -19 45t-45 19h-32q-26 0 -45 -19t-19 -45zM160 -32q-23 0 -35 20q-5 9 -5 20t5 20q12 20 35 20t35 -20q5 -9 5 -20t-5 -20q-12 -20 -35 -20z" />
    <glyph glyph-name="at" unicode="at" 
d="M256 384q52 0 96.5 -25.5t70 -70t25.5 -96.5v-32q0 -13 -9.5 -22.5t-22.5 -9.5t-22.5 9.5t-9.5 22.5v32v80q0 13 -9.5 22.5t-22.5 9.5q-12 0 -21 -8q-34 24 -75 24q-53 0 -90.5 -37.5t-37.5 -90.5t37.5 -90.5t90.5 -37.5q50 0 87 34q29 -34 73 -34q40 0 68 28t28 68v32
q0 106 -75 181t-181 75t-181 -75t-75 -181t75 -181t181 -75q13 0 22.5 9.5t9.5 22.5t-9.5 22.5t-22.5 9.5q-80 0 -136 56t-56 136t56 136t136 56zM320 192q0 -37 -32 -55q-15 -9 -32 -9t-32 9q-32 18 -32 55t32 55q15 9 32 9t32 -9q32 -18 32 -55z" />
    <glyph glyph-name="sterling-sign" unicode="gbp" horiz-adv-x="320" 
d="M112 288v-64h112q13 0 22.5 -9.5t9.5 -22.5t-9.5 -22.5t-22.5 -9.5h-112v-44q0 -45 -23 -83l-1 -1h200q13 0 22.5 -9.5t9.5 -22.5t-9.5 -22.5t-22.5 -9.5h-256q-19 0 -28 16t1 33l29 49q14 23 14 50v44h-16q-13 0 -22.5 9.5t-9.5 22.5t9.5 22.5t22.5 9.5h16v64
q0 53 37.5 90.5t90.5 37.5q21 0 41 -7l81 -27q13 -4 19 -16t1.5 -24.5t-16 -18.5t-24.5 -1l-81 27q-10 3 -21 3q-26 0 -45 -19t-19 -45z" />
    <glyph glyph-name="yen-sign" unicode="cny" horiz-adv-x="320" 
d="M59 402l101 -152l101 152q8 11 21 13.5t24 -5t13.5 -20.5t-4.5 -24l-95 -142h52q13 0 22.5 -9.5t9.5 -22.5t-9.5 -22.5t-22.5 -9.5h-80v-32h80q13 0 22.5 -9.5t9.5 -22.5t-9.5 -22.5t-22.5 -9.5h-80v-64q0 -13 -9.5 -22.5t-22.5 -9.5t-22.5 9.5t-9.5 22.5v64h-80
q-13 0 -22.5 9.5t-9.5 22.5t9.5 22.5t22.5 9.5h80v32h-80q-13 0 -22.5 9.5t-9.5 22.5t9.5 22.5t22.5 9.5h52l-95 142q-7 11 -4.5 24t13.5 20.5t24 5t21 -13.5z" />
    <glyph glyph-name="copyright" unicode="copyright" 
d="M256 -64q-69 0 -128 34.5t-93.5 93.5t-34.5 128t34.5 128t93.5 93.5t128 34.5t128 -34.5t93.5 -93.5t34.5 -128t-34.5 -128t-93.5 -93.5t-128 -34.5zM199 135v1q-23 23 -23 56t23.5 56.5t56.5 23.5t56 -23q7 -7 17 -7t17 7t7 16.5t-7 16.5q-37 38 -90 38t-90.5 -37.5
t-37.5 -90.5t37.5 -90.5t90.5 -37.5t90 38q7 6 7 16t-7 17t-16.5 7t-16.5 -7q-24 -23 -57 -23t-57 23zM199 135z" />
    <glyph glyph-name="angles-left" unicode="angle&#x2d;double&#x2d;left" 
d="M41 215l160 160q10 9 23 9t22.5 -9.5t9.5 -22.5t-9 -23l-138 -137l138 -137q9 -10 9 -23t-9.5 -22.5t-22.5 -9.5t-23 9l-160 160q-9 10 -9 23t9 23zM393 375q10 9 23 9t22.5 -9.5t9.5 -22.5t-9 -23l-138 -137l138 -137q9 -10 9 -23t-9.5 -22.5t-22.5 -9.5t-23 9l-160 160
q-9 10 -9 23t9 23zM393 375z" />
    <glyph glyph-name="registered" unicode="registered" 
d="M256 -64q-69 0 -128 34.5t-93.5 93.5t-34.5 128t34.5 128t93.5 93.5t128 34.5t128 -34.5t93.5 -93.5t34.5 -128t-34.5 -128t-93.5 -93.5t-128 -34.5zM160 296v-112v-96q0 -10 7 -17t17 -7t17 7t7 17v72h61l37 -82q4 -9 13.5 -12.5t18.5 0.5t12.5 13.5t-0.5 18.5l-34 75
q36 24 36 67q0 33 -23.5 56.5t-56.5 23.5h-88q-10 0 -17 -7t-7 -17zM208 208v64h64q13 0 22.5 -9.5t9.5 -22.5t-9.5 -22.5t-22.5 -9.5h-64z" />
    <glyph glyph-name="paragraph" unicode="paragraph" horiz-adv-x="448" 
d="M192 416q-66 0 -113 -47t-47 -113t47 -113t113 -47h32v-96q0 -13 9.5 -22.5t22.5 -9.5t22.5 9.5t9.5 22.5v352h32v-352q0 -13 9.5 -22.5t22.5 -9.5t22.5 9.5t9.5 22.5v352h32q13 0 22.5 9.5t9.5 22.5t-9.5 22.5t-22.5 9.5h-160h-64z" />
    <glyph glyph-name="angles-right" unicode="angle&#x2d;double&#x2d;right" 
d="M471 169l-160 -160q-10 -9 -23 -9t-22.5 9.5t-9.5 22.5t9 23l138 137l-138 137q-9 10 -9 23t9.5 22.5t22.5 9.5t23 -9l160 -160q9 -10 9 -23t-9 -23zM119 9q-10 -9 -23 -9t-22.5 9.5t-9.5 22.5t9 23l138 137l-138 137q-9 10 -9 23t9.5 22.5t22.5 9.5t23 -9l160 -160
q9 -10 9 -23t-9 -23zM119 9z" />
    <glyph glyph-name="xmark" unicode="close" horiz-adv-x="384" 
d="M343 297l-106 -105l106 -105q9 -10 9 -23t-9.5 -22.5t-22.5 -9.5t-23 9l-105 106l-105 -106q-10 -9 -23 -9t-22.5 9.5t-9.5 22.5t9 23l106 105l-106 105q-9 10 -9 23t9.5 22.5t22.5 9.5t23 -9l105 -106l105 106q10 9 23 9t22.5 -9.5t9.5 -22.5t-9 -23z" />
    <glyph glyph-name="divide" unicode="divide" horiz-adv-x="448" 
d="M272 352q0 -28 -24 -41.5t-48 0t-24 41.5t24 41.5t48 0t24 -41.5zM272 32q0 -28 -24 -41.5t-48 0t-24 41.5t24 41.5t48 0t24 -41.5zM400 160h-352q-13 0 -22.5 9.5t-9.5 22.5t9.5 22.5t22.5 9.5h352q13 0 22.5 -9.5t9.5 -22.5t-9.5 -22.5t-22.5 -9.5z" />
    <glyph glyph-name="minus" unicode="minus" horiz-adv-x="448" 
d="M432 192q0 13 -9.5 22.5t-22.5 9.5h-352q-13 0 -22.5 -9.5t-9.5 -22.5t9.5 -22.5t22.5 -9.5h352q13 0 22.5 9.5t9.5 22.5z" />
    <glyph glyph-name="quote-left" unicode="quote&#x2d;left&#x2d;alt" horiz-adv-x="448" 
d="M0 232v-72v-32v-32q0 -26 19 -45t45 -19h64q26 0 45 19t19 45v64q0 26 -19 45t-45 19h-64v8q0 23 16.5 39.5t39.5 16.5h8q13 0 22.5 9.5t9.5 22.5t-9.5 22.5t-22.5 9.5h-8q-50 0 -85 -35t-35 -85zM256 232v-72v-32v-32q0 -26 19 -45t45 -19h64q26 0 45 19t19 45v64
q0 26 -19 45t-45 19h-64v8q0 23 16.5 39.5t39.5 16.5h8q13 0 22.5 9.5t9.5 22.5t-9.5 22.5t-22.5 9.5h-8q-50 0 -85 -35t-35 -85z" />
    <glyph glyph-name="quote-right" unicode="quote&#x2d;right&#x2d;alt" horiz-adv-x="448" 
d="M448 152v72v32v32q0 26 -19 45t-45 19h-64q-26 0 -45 -19t-19 -45v-64q0 -26 19 -45t45 -19h64v-8q0 -23 -16.5 -39.5t-39.5 -16.5h-8q-13 0 -22.5 -9.5t-9.5 -22.5t9.5 -22.5t22.5 -9.5h8q50 0 85 35t35 85zM192 152v72v32v32q0 26 -19 45t-45 19h-64q-26 0 -45 -19
t-19 -45v-64q0 -26 19 -45t45 -19h64v-8q0 -23 -16.5 -39.5t-39.5 -16.5h-8q-13 0 -22.5 -9.5t-9.5 -22.5t9.5 -22.5t22.5 -9.5h8q50 0 85 35t35 85z" />
    <glyph glyph-name="angle-left" unicode="angle&#x2d;left" horiz-adv-x="320" 
d="M41 215l160 160q10 9 23 9t22.5 -9.5t9.5 -22.5t-9 -23l-138 -137l138 -137q9 -10 9 -23t-9.5 -22.5t-22.5 -9.5t-23 9l-160 160q-9 10 -9 23t9 23zM41 215z" />
    <glyph glyph-name="angle-right" unicode="angle&#x2d;right" horiz-adv-x="320" 
d="M279 215l-160 160q-10 9 -23 9t-22.5 -9.5t-9.5 -22.5t9 -23l138 -137l-138 -137q-9 -10 -9 -23t9.5 -22.5t22.5 -9.5t23 9l160 160q9 10 9 23t-9 23zM279 215z" />
    <glyph glyph-name="lira-sign" unicode="lira&#x2d;sign" horiz-adv-x="320" 
d="M112 288v-32h112q13 0 22.5 -9.5t9.5 -22.5t-9.5 -22.5t-22.5 -9.5h-112v-32h112q13 0 22.5 -9.5t9.5 -22.5t-9.5 -22.5t-22.5 -9.5h-113q-4 -34 -22 -63l-1 -1h200q13 0 22.5 -9.5t9.5 -22.5t-9.5 -22.5t-22.5 -9.5h-256q-19 0 -28 16t1 33l29 49q9 14 12 30h-14
q-13 0 -22.5 9.5t-9.5 22.5t9.5 22.5t22.5 9.5h16v32h-16q-13 0 -22.5 9.5t-9.5 22.5t9.5 22.5t22.5 9.5h16v32q0 53 37.5 90.5t90.5 37.5q21 0 41 -7l81 -27q13 -4 19 -16t1.5 -24.5t-16 -18.5t-24.5 -1l-81 27q-10 3 -21 3q-26 0 -45 -19t-19 -45z" />
    <glyph glyph-name="rupee-sign" unicode="rupee&#x2d;sign" horiz-adv-x="448" 
d="M0 384v-224v-160q0 -13 9.5 -22.5t22.5 -9.5t22.5 9.5t9.5 22.5v128h42l56 -140q5 -12 17.5 -17.5t24.5 -0.5t17.5 17.5t0.5 24.5l-52 128q39 17 62.5 53t23.5 79q0 60 -42 102t-102 42h-80q-13 0 -22.5 -9.5t-9.5 -22.5zM64 192v160h48q33 0 56.5 -23.5t23.5 -56.5
t-23.5 -56.5t-56.5 -23.5h-48zM320 176h1q1 7 9 12q13 6 33 3q15 -3 27.5 -7t24.5 2.5t16 19t-2.5 24.5t-18.5 15q-13 5 -36 9q-18 4 -37.5 1t-36 -10.5t-28.5 -23t-15 -36.5q-3 -24 5 -43q7 -18 23.5 -31t53.5 -26l3 -1q28 -10 37 -17q3 -3 4 -6q2 -4 1 -12q-2 -10 -9 -13
q-13 -7 -33 -3q-5 1 -19 6l-15 6q-3 1 -8 3q-13 5 -25 -0.5t-17 -17.5t0.5 -24.5t17.5 -16.5q1 -1 4 -2l3 -1q13 -5 17 -7q19 -7 30 -9v0q42 -7 73 8q38 19 44 61q3 24 -4 44q-7 19 -23 33q-17 14 -56 28h-1q-30 11 -38 17q-3 3 -4 5q-1 3 -1 10zM321 176z" />
    <glyph glyph-name="won-sign" unicode="krw" 
d="M62 394l57 -170h64l42 168q3 10 11.5 17t19.5 7q7 0 13.5 -3t11 -8.5t6.5 -12.5l42 -168h64l57 170q4 13 16 19t24.5 1.5t18.5 -16.5t1 -24l-50 -150h20q13 0 22.5 -9.5t9.5 -22.5t-9.5 -22.5t-22.5 -9.5h-41l-57 -170q-3 -10 -12 -16t-19.5 -6t-18.5 7t-11 17l-42 168
h-46l-42 -168q-3 -10 -11 -17t-18.5 -7t-19.5 6t-12 16l-57 170h-41q-13 0 -22.5 9.5t-9.5 22.5t9.5 22.5t22.5 9.5h20l-50 150q-5 12 1 24t18.5 16.5t24.5 -1.5t16 -19zM140 160l16 -46l11 46h-27zM249 224h14l-7 28zM345 160l11 -46l16 46h-27z" />
    <glyph glyph-name="shekel-sign" unicode="ils" horiz-adv-x="448" 
d="M32 416h160q53 0 90.5 -37.5t37.5 -90.5v-160q0 -13 -9.5 -22.5t-22.5 -9.5t-22.5 9.5t-9.5 22.5v160q0 26 -19 45t-45 19h-128v-352q0 -13 -9.5 -22.5t-22.5 -9.5t-22.5 9.5t-9.5 22.5v384q0 13 9.5 22.5t22.5 9.5zM320 -32h-160q-13 0 -22.5 9.5t-9.5 22.5v256
q0 13 9.5 22.5t22.5 9.5t22.5 -9.5t9.5 -22.5v-224h128q26 0 45 19t19 45v288q0 13 9.5 22.5t22.5 9.5t22.5 -9.5t9.5 -22.5v-288q0 -53 -37.5 -90.5t-90.5 -37.5z" />
    <glyph glyph-name="euro-sign" unicode="euro&#x2d;sign" horiz-adv-x="320" 
d="M48 208h-16q-13 0 -22.5 9.5t-9.5 22.5t9.5 22.5t22.5 9.5h28q23 64 78.5 104t125.5 40h24q13 0 22.5 -9.5t9.5 -22.5t-9.5 -22.5t-22.5 -9.5h-24q-43 0 -78.5 -22t-55.5 -58h126q13 0 22.5 -9.5t9.5 -22.5t-9.5 -22.5t-22.5 -9.5h-144v-8v-16v-8h144q13 0 22.5 -9.5
t9.5 -22.5t-9.5 -22.5t-22.5 -9.5h-126q20 -36 55.5 -58t78.5 -22h24q13 0 22.5 -9.5t9.5 -22.5t-9.5 -22.5t-22.5 -9.5h-24q-70 0 -125.5 40t-78.5 104h-28q-13 0 -22.5 9.5t-9.5 22.5t9.5 22.5t22.5 9.5h16v8v16v8z" />
    <glyph glyph-name="hryvnia-sign" unicode="hryvnia&#x2d;sign" horiz-adv-x="384" 
d="M122 332l-6 -5q-10 -8 -23.5 -6.5t-21.5 11.5t-6.5 23.5t11.5 21.5l6 5q43 34 98 34h43q47 0 80 -33t33 -80q0 -16 -4 -31h20q13 0 22.5 -9.5t9.5 -22.5t-9.5 -22.5t-22.5 -9.5h-68q-1 -1 -5 -3l-50 -29h123q13 0 22.5 -9.5t9.5 -22.5t-9.5 -22.5t-22.5 -9.5h-229
q-11 -13 -11 -31q0 -20 14.5 -34.5t34.5 -14.5h43q33 0 58 20l6 5q10 8 23.5 6.5t21.5 -11.5t6.5 -23.5t-11.5 -21.5l-6 -5q-43 -34 -98 -34h-43q-47 0 -80 33t-33 80q0 16 4 31h-20q-13 0 -22.5 9.5t-9.5 22.5t9.5 22.5t22.5 9.5h68q2 1 5 3l51 29h-124q-13 0 -22.5 9.5
t-9.5 22.5t9.5 22.5t22.5 9.5h229q11 13 11 31q0 20 -14.5 34.5t-34.5 14.5h-43q-33 0 -58 -20zM122 332z" />
    <glyph glyph-name="tenge-sign" unicode="tenge&#x2d;sign" horiz-adv-x="384" 
d="M0 384q0 -13 9.5 -22.5t22.5 -9.5h320q13 0 22.5 9.5t9.5 22.5t-9.5 22.5t-22.5 9.5h-320q-13 0 -22.5 -9.5t-9.5 -22.5zM0 256q0 -13 9.5 -22.5t22.5 -9.5h128v-224q0 -13 9.5 -22.5t22.5 -9.5t22.5 9.5t9.5 22.5v224h128q13 0 22.5 9.5t9.5 22.5t-9.5 22.5t-22.5 9.5
h-160h-160q-13 0 -22.5 -9.5t-9.5 -22.5z" />
    <glyph glyph-name="ruble-sign" unicode="ruble&#x2d;sign" horiz-adv-x="384" 
d="M96 416h144q60 0 102 -42t42 -102t-42 -102t-102 -42h-112v-32h160q13 0 22.5 -9.5t9.5 -22.5t-9.5 -22.5t-22.5 -9.5h-160v-32q0 -13 -9.5 -22.5t-22.5 -9.5t-22.5 9.5t-9.5 22.5v32h-32q-13 0 -22.5 9.5t-9.5 22.5t9.5 22.5t22.5 9.5h32v32h-32q-13 0 -22.5 9.5
t-9.5 22.5t9.5 22.5t22.5 9.5h32v192q0 13 9.5 22.5t22.5 9.5zM240 192q33 0 56.5 23.5t23.5 56.5t-23.5 56.5t-56.5 23.5h-112v-160h112z" />
    <glyph glyph-name="trademark" unicode="trademark" horiz-adv-x="640" 
d="M346 339l118 -158l118 158q14 19 36 11.5t22 -30.5v-256q0 -13 -9.5 -22.5t-22.5 -9.5t-22.5 9.5t-9.5 22.5v160l-86 -115q-10 -13 -26 -13t-26 13l-86 115v-160q0 -13 -9.5 -22.5t-22.5 -9.5t-22.5 9.5t-9.5 22.5v256q0 23 22 30.5t36 -11.5zM0 320q0 13 9.5 22.5
t22.5 9.5h192q13 0 22.5 -9.5t9.5 -22.5t-9.5 -22.5t-22.5 -9.5h-64v-224q0 -13 -9.5 -22.5t-22.5 -9.5t-22.5 9.5t-9.5 22.5v224h-64q-13 0 -22.5 9.5t-9.5 22.5z" />
    <glyph glyph-name="arrow-left" unicode="arrow&#x2d;left" horiz-adv-x="448" 
d="M9 215l160 160q10 9 23 9t22.5 -9.5t9.5 -22.5t-9 -23l-106 -105h307q13 0 22.5 -9.5t9.5 -22.5t-9.5 -22.5t-22.5 -9.5h-307l106 -105q9 -10 9 -23t-9.5 -22.5t-22.5 -9.5t-23 9l-160 160q-9 10 -9 23t9 23zM9 215z" />
    <glyph glyph-name="arrow-up" unicode="arrow&#x2d;up" horiz-adv-x="384" 
d="M215 407l160 -160q9 -10 9 -23t-9.5 -22.5t-22.5 -9.5t-23 9l-105 106v-307q0 -13 -9.5 -22.5t-22.5 -9.5t-22.5 9.5t-9.5 22.5v307l-105 -106q-10 -9 -23 -9t-22.5 9.5t-9.5 22.5t9 23l160 160q10 9 23 9t23 -9zM215 407z" />
    <glyph glyph-name="arrow-right" unicode="arrow&#x2d;right" horiz-adv-x="448" 
d="M439 169l-160 -160q-10 -9 -23 -9t-22.5 9.5t-9.5 22.5t9 23l106 105h-307q-13 0 -22.5 9.5t-9.5 22.5t9.5 22.5t22.5 9.5h307l-106 105q-9 10 -9 23t9.5 22.5t22.5 9.5t23 -9l160 -160q9 -10 9 -23t-9 -23zM439 169z" />
    <glyph glyph-name="arrow-down" unicode="arrow&#x2d;down" horiz-adv-x="384" 
d="M169 -23l-160 160q-9 10 -9 23t9.5 22.5t22.5 9.5t23 -9l105 -106v307q0 13 9.5 22.5t22.5 9.5t22.5 -9.5t9.5 -22.5v-307l105 106q10 9 23 9t22.5 -9.5t9.5 -22.5t-9 -23l-160 -160q-10 -9 -23 -9t-23 9zM169 -23z" />
    <glyph glyph-name="left-right" unicode="arrows&#x2d;alt&#x2d;h" 
d="M504 174l-112 -104q-11 -10 -25.5 -4t-14.5 22v56h-192v-56q0 -16 -14.5 -22t-25.5 4l-112 104q-8 8 -8 18t8 18l112 104q11 10 25.5 4t14.5 -22v-56h192v56q0 16 14.5 22t25.5 -4l112 -104q8 -8 8 -18.5t-8 -17.5z" />
    <glyph glyph-name="up-down" unicode="arrows&#x2d;alt&#x2d;v" horiz-adv-x="256" 
d="M146 440l104 -112q10 -11 4 -25.5t-22 -14.5h-56v-192h56q16 0 22 -14.5t-4 -25.5l-104 -112q-8 -8 -18.5 -8t-17.5 8l-104 112q-10 11 -4 25.5t22 14.5h56v192h-56q-16 0 -22 14.5t4 25.5l104 112q8 8 18 8t18 -8zM146 440z" />
    <glyph glyph-name="square-up-right" unicode="external&#x2d;link&#x2d;square&#x2d;alt" horiz-adv-x="448" 
d="M384 416h-320q-26 0 -45 -19t-19 -45v-320q0 -26 19 -45t45 -19h320q26 0 45 19t19 45v320q0 26 -19 45t-45 19zM320 135q0 -10 -6.5 -16.5t-16 -6.5t-16.5 7l-33 33l-66 -66q-6 -6 -14 -6t-14 6l-36 36q-6 6 -6 14t6 14l66 66l-33 33q-7 7 -7 16.5t6.5 16t16.5 6.5h137
q7 0 11.5 -4.5t4.5 -11.5v-137z" />
    <glyph glyph-name="arrow-rotate-left" unicode="arrow&#x2d;rotate&#x2d;backward" 
d="M126 288l17 17q47 47 113 47t113 -47t47 -113t-47 -113t-113 -47t-113 47q-9 9 -22.5 9t-23 -9t-9.5 -22.5t10 -22.5q65 -66 158 -66t158.5 65.5t65.5 158.5t-65.5 158.5t-158.5 65.5t-158 -66l-18 -17v51q0 13 -9.5 22.5t-22.5 9.5t-22.5 -9.5t-9.5 -22.5v-128
q0 -13 9.5 -22.5t22.5 -9.5h128q13 0 22.5 9.5t9.5 22.5t-9.5 22.5t-22.5 9.5h-50z" />
    <glyph glyph-name="arrow-rotate-right" unicode="arrow&#x2d;rotate&#x2d;forward" 
d="M386 288l-17 17q-47 47 -113 47t-113 -47t-47 -113t47 -113t113 -47t113 47q9 9 22.5 9t23 -9t9.5 -22.5t-10 -22.5q-65 -66 -158 -66t-158.5 65.5t-65.5 158.5t65.5 158.5t158.5 65.5t158 -66l18 -17v51q0 13 9.5 22.5t22.5 9.5t22.5 -9.5t9.5 -22.5v-128
q0 -13 -9.5 -22.5t-22.5 -9.5h-128q-13 0 -22.5 9.5t-9.5 22.5t9.5 22.5t22.5 9.5h50z" />
    <glyph glyph-name="arrow-right-arrow-left" unicode="arrow&#x2d;right&#x2d;arrow&#x2d;left" horiz-adv-x="448" 
d="M439 297l-96 -96q-10 -9 -23 -9t-22.5 9.5t-9.5 22.5t9 23l42 41h-307q-13 0 -22.5 9.5t-9.5 22.5t9.5 22.5t22.5 9.5h307l-42 41q-9 10 -9 23t9.5 22.5t22.5 9.5t23 -9l96 -96q9 -10 9 -23t-9 -23zM105 -55l-96 96q-9 10 -9 23t9 23l96 96q10 9 23 9t22.5 -9.5
t9.5 -22.5t-9 -23l-42 -41h307q13 0 22.5 -9.5t9.5 -22.5t-9.5 -22.5t-22.5 -9.5h-307l42 -41q9 -10 9 -23t-9.5 -22.5t-22.5 -9.5t-23 9zM105 -55z" />
    <glyph glyph-name="infinity" unicode="infinity" horiz-adv-x="640" 
d="M0 207v-30q0 -60 42.5 -102.5t102.5 -42.5t103 42l72 73l72 -73q43 -42 103 -42t102.5 42.5t42.5 102.5v30q0 60 -42.5 102.5t-102.5 42.5t-103 -42l-72 -73l-72 73q-43 42 -103 42t-102.5 -42.5t-42.5 -102.5zM275 192l-73 -72q-23 -24 -57 -24t-57.5 24t-23.5 57v30
q0 33 23.5 57t57.5 24t57 -24zM365 192l72 72q24 24 57.5 24t57.5 -24t24 -57v-30q0 -34 -24 -57.5t-57.5 -23.5t-57.5 24zM365 192z" />
    <glyph glyph-name="angle-up" unicode="angle&#x2d;up" horiz-adv-x="448" 
d="M201 311l-160 -160q-9 -10 -9 -23t9.5 -22.5t22.5 -9.5t23 9l137 138l137 -138q10 -9 23 -9t22.5 9.5t9.5 22.5t-9 23l-160 160q-10 9 -23 9t-23 -9zM201 311z" />
    <glyph glyph-name="angle-down" unicode="angle&#x2d;down" horiz-adv-x="448" 
d="M201 105l-160 160q-9 10 -9 23t9.5 22.5t22.5 9.5t23 -9l137 -138l137 138q10 9 23 9t22.5 -9.5t9.5 -22.5t-9 -23l-160 -160q-10 -9 -23 -9t-23 9zM201 105z" />
    <glyph glyph-name="hourglass-end" unicode="hourglass&#x2d;end" horiz-adv-x="384" 
d="M32 448h32h256h32q13 0 22.5 -9.5t9.5 -22.5t-9.5 -22.5t-22.5 -9.5v-11q0 -66 -47 -113l-68 -68l68 -68q47 -47 47 -113v-11q13 0 22.5 -9.5t9.5 -22.5t-9.5 -22.5t-22.5 -9.5h-32h-256h-32q-13 0 -22.5 9.5t-9.5 22.5t9.5 22.5t22.5 9.5v11q0 66 47 113l68 68l-68 68
q-47 47 -47 113v11q-13 0 -22.5 9.5t-9.5 22.5t9.5 22.5t22.5 9.5zM96 373q0 -40 28 -68l68 -68l68 68q28 28 28 68v11h-192v-11z" />
    <glyph glyph-name="keyboard" unicode="keyboard" horiz-adv-x="576" 
d="M64 384h448q26 0 45 -19t19 -45v-256q0 -26 -19 -45t-45 -19h-448q-26 0 -45 19t-19 45v256q0 26 19 45t45 19zM80 320q-7 0 -11.5 -4.5t-4.5 -11.5v-32q0 -7 4.5 -11.5t11.5 -4.5h32q7 0 11.5 4.5t4.5 11.5v32q0 7 -4.5 11.5t-11.5 4.5h-32zM64 208v-32q0 -7 4.5 -11.5
t11.5 -4.5h32q7 0 11.5 4.5t4.5 11.5v32q0 7 -4.5 11.5t-11.5 4.5h-32q-7 0 -11.5 -4.5t-4.5 -11.5zM80 128q-7 0 -11.5 -4.5t-4.5 -11.5v-32q0 -7 4.5 -11.5t11.5 -4.5h32q7 0 11.5 4.5t4.5 11.5v32q0 7 -4.5 11.5t-11.5 4.5h-32zM160 304v-32q0 -7 4.5 -11.5t11.5 -4.5h32
q7 0 11.5 4.5t4.5 11.5v32q0 7 -4.5 11.5t-11.5 4.5h-32q-7 0 -11.5 -4.5t-4.5 -11.5zM176 224q-7 0 -11.5 -4.5t-4.5 -11.5v-32q0 -7 4.5 -11.5t11.5 -4.5h32q7 0 11.5 4.5t4.5 11.5v32q0 7 -4.5 11.5t-11.5 4.5h-32zM160 112v-32q0 -7 4.5 -11.5t11.5 -4.5h224
q7 0 11.5 4.5t4.5 11.5v32q0 7 -4.5 11.5t-11.5 4.5h-224q-7 0 -11.5 -4.5t-4.5 -11.5zM272 320q-7 0 -11.5 -4.5t-4.5 -11.5v-32q0 -7 4.5 -11.5t11.5 -4.5h32q7 0 11.5 4.5t4.5 11.5v32q0 7 -4.5 11.5t-11.5 4.5h-32zM256 208v-32q0 -7 4.5 -11.5t11.5 -4.5h32
q7 0 11.5 4.5t4.5 11.5v32q0 7 -4.5 11.5t-11.5 4.5h-32q-7 0 -11.5 -4.5t-4.5 -11.5zM368 320q-7 0 -11.5 -4.5t-4.5 -11.5v-32q0 -7 4.5 -11.5t11.5 -4.5h32q7 0 11.5 4.5t4.5 11.5v32q0 7 -4.5 11.5t-11.5 4.5h-32zM352 208v-32q0 -7 4.5 -11.5t11.5 -4.5h32
q7 0 11.5 4.5t4.5 11.5v32q0 7 -4.5 11.5t-11.5 4.5h-32q-7 0 -11.5 -4.5t-4.5 -11.5zM464 320q-7 0 -11.5 -4.5t-4.5 -11.5v-32q0 -7 4.5 -11.5t11.5 -4.5h32q7 0 11.5 4.5t4.5 11.5v32q0 7 -4.5 11.5t-11.5 4.5h-32zM448 208v-32q0 -7 4.5 -11.5t11.5 -4.5h32
q7 0 11.5 4.5t4.5 11.5v32q0 7 -4.5 11.5t-11.5 4.5h-32q-7 0 -11.5 -4.5t-4.5 -11.5zM464 128q-7 0 -11.5 -4.5t-4.5 -11.5v-32q0 -7 4.5 -11.5t11.5 -4.5h32q7 0 11.5 4.5t4.5 11.5v32q0 7 -4.5 11.5t-11.5 4.5h-32z" />
    <glyph glyph-name="chevron-left" unicode="chevron&#x2d;left" horiz-adv-x="320" 
d="M9 215l192 192q10 9 23 9t22.5 -9.5t9.5 -22.5t-9 -23l-170 -169l170 -169q9 -10 9 -23t-9.5 -22.5t-22.5 -9.5t-23 9l-192 192q-9 10 -9 23t9 23zM9 215z" />
    <glyph glyph-name="chevron-right" unicode="chevron&#x2d;right" horiz-adv-x="320" 
d="M311 215l-192 192q-10 9 -23 9t-22.5 -9.5t-9.5 -22.5t9 -23l170 -169l-170 -169q-9 -10 -9 -23t9.5 -22.5t22.5 -9.5t23 9l192 192q9 10 9 23t-9 23zM311 215z" />
    <glyph glyph-name="delete-left" unicode="backspace" horiz-adv-x="576" 
d="M576 320v-256q0 -26 -19 -45t-45 -19h-307q-26 0 -45 19l-151 150q-9 10 -9 23t9 23l151 150q19 19 45 19h307q26 0 45 -19t19 -45zM271 273q-7 -7 -7 -17t7 -17l47 -47l-47 -47q-7 -7 -7 -17t7 -17t17 -7t17 7l47 47l47 -47q7 -7 17 -7t17 7t7 17t-7 17l-47 47l47 47
q7 7 7 17t-7 17t-17 7t-17 -7l-47 -47l-47 47q-7 7 -17 7t-17 -7z" />
    <glyph glyph-name="print" unicode="print" 
d="M128 448h227q26 0 45 -19l29 -29q19 -19 19 -45v-67h-64v67l-29 29h-227v-96h-64v96q0 26 19 45t45 19zM384 96h-256v-16v-16v-64h256v64v32zM448 64v-64q0 -26 -19 -45t-45 -19h-256q-26 0 -45 19t-19 45v64h-32q-13 0 -22.5 9.5t-9.5 22.5v96q0 26 19 45t45 19h384
q26 0 45 -19t19 -45v-96q0 -13 -9.5 -22.5t-22.5 -9.5h-32zM432 200q-10 0 -17 -7t-7 -17t7 -17t17 -7t17 7t7 17t-7 17t-17 7z" />
    <glyph glyph-name="eject" unicode="eject" horiz-adv-x="448" 
d="M224 416q-21 0 -35 -15l-176 -192q-21 -24 -8.5 -52.5t43.5 -28.5h352q32 0 44 29q13 28 -9 51l-176 192q-14 16 -35 16zM0 16q0 -20 14 -34t34 -14h352q20 0 34 14t14 34t-14 34t-34 14h-352q-20 0 -34 -14t-14 -34z" />
    <glyph glyph-name="forward" unicode="forward" 
d="M52 7l172 143v42v42l-171 143q-16 13 -34.5 4t-18.5 -29v-320q0 -20 18.5 -29t33.5 4zM256 96v-64q0 -20 18.5 -29t34.5 4l192 160q11 10 11 25t-11 25l-192 160q-16 13 -34.5 4t-18.5 -29v-32v-128v-96z" />
    <glyph glyph-name="backward" unicode="backward" 
d="M460 7l-172 143v42v42l171 143q16 13 34.5 4t18.5 -29v-320q0 -20 -18.5 -29t-33.5 4zM256 96v-64q0 -20 -18.5 -29t-34.5 4l-192 160q-11 10 -11 25t11 25l192 160q16 13 34.5 4t18.5 -29v-32v-128v-96z" />
    <glyph glyph-name="forward-fast" unicode="forward&#x2d;fast" 
d="M18.5 3q-18.5 9 -18.5 29v320q0 20 18.5 29t34.5 -4l171 -143v118q0 20 18.5 29t33.5 -4l172 -143v118q0 13 9.5 22.5t22.5 9.5t22.5 -9.5t9.5 -22.5v-320q0 -13 -9.5 -22.5t-22.5 -9.5t-22.5 9.5t-9.5 22.5v118l-172 -143q-15 -13 -33.5 -4t-18.5 29v118l-172 -143
q-15 -13 -33.5 -4z" />
    <glyph glyph-name="backward-fast" unicode="backward&#x2d;fast" 
d="M493.5 3q18.5 9 18.5 29v320q0 20 -18.5 29t-34.5 -4l-171 -143v118q0 20 -18.5 29t-33.5 -4l-172 -143v118q0 13 -9.5 22.5t-22.5 9.5t-22.5 -9.5t-9.5 -22.5v-320q0 -13 9.5 -22.5t22.5 -9.5t22.5 9.5t9.5 22.5v118l172 -143q15 -13 33.5 -4t18.5 29v118l172 -143
q15 -13 33.5 -4z" />
    <glyph glyph-name="stopwatch" unicode="stopwatch" horiz-adv-x="448" 
d="M176 448h48h48q13 0 22.5 -9.5t9.5 -22.5t-9.5 -22.5t-22.5 -9.5h-16v-34q56 -9 100 -45l21 22q10 9 23 9t22.5 -9.5t9.5 -22.5t-9 -23l-25 -24q34 -51 34 -113q0 -86 -61 -147t-147 -61t-147 61t-61 147q0 77 50.5 135.5t125.5 70.5v34h-16q-13 0 -22.5 9.5t-9.5 22.5
t9.5 22.5t22.5 9.5zM248 256q0 10 -7 17t-17 7t-17 -7t-7 -17v-128q0 -10 7 -17t17 -7t17 7t7 17v128z" />
    <glyph glyph-name="hourglass" unicode="hourglass&#x2d;empty" horiz-adv-x="384" 
d="M0 416q0 -13 9.5 -22.5t22.5 -9.5v-11q0 -66 47 -113l68 -68l-68 -68q-47 -47 -47 -113v-11q-13 0 -22.5 -9.5t-9.5 -22.5t9.5 -22.5t22.5 -9.5h32h256h32q13 0 22.5 9.5t9.5 22.5t-9.5 22.5t-22.5 9.5v11q0 66 -47 113l-68 68l68 68q47 47 47 113v11q13 0 22.5 9.5
t9.5 22.5t-9.5 22.5t-22.5 9.5h-32h-256h-32q-13 0 -22.5 -9.5t-9.5 -22.5zM96 384h192v-11q0 -40 -28 -68l-68 -68l-68 68q-28 28 -28 68v11zM96 0v11q0 40 28 68l68 68l68 -68q28 -28 28 -68v-11h-192zM96 0z" />
    <glyph glyph-name="pause" unicode="pause" horiz-adv-x="320" 
d="M48 384h32q20 0 34 -14t14 -34v-288q0 -20 -14 -34t-34 -14h-32q-20 0 -34 14t-14 34v288q0 20 14 34t34 14zM240 384h32q20 0 34 -14t14 -34v-288q0 -20 -14 -34t-34 -14h-32q-20 0 -34 14t-14 34v288q0 20 14 34t34 14z" />
    <glyph glyph-name="stop" unicode="stop" horiz-adv-x="384" 
d="M0 320v-256q0 -26 19 -45t45 -19h256q26 0 45 19t19 45v256q0 26 -19 45t-45 19h-256q-26 0 -45 -19t-19 -45z" />
    <glyph glyph-name="power-off" unicode="power&#x2d;off" 
d="M288 416v-224q0 -13 -9.5 -22.5t-22.5 -9.5t-22.5 9.5t-9.5 22.5v224q0 13 9.5 22.5t22.5 9.5t22.5 -9.5t9.5 -22.5zM144 327h-1q-63 -52 -63 -135q0 -73 51.5 -124.5t124.5 -51.5t124.5 51.5t51.5 124.5q0 83 -64 135q-10 9 -11 22t7.5 23.5t21.5 11.5t23 -7
q41 -34 64 -82t23 -103q0 -99 -70.5 -169.5t-169.5 -70.5t-169.5 70.5t-70.5 169.5q0 36 10.5 70.5t30 63t45.5 51.5q11 8 24 7t21.5 -11.5t7.5 -23.5t-11 -22zM144 327z" />
    <glyph glyph-name="moon" unicode="moon" horiz-adv-x="384" 
d="M224 416h-1q9 0 19 -1q12 -1 14.5 -12.5t-7.5 -17.5q-41 -23 -65 -63.5t-24 -89.5q0 -73 51.5 -124.5t123.5 -51.5q15 0 30 3q12 2 17.5 -8.5t-3.5 -19.5q-65 -63 -155 -63q-93 0 -158.5 65.5t-65.5 158.5t65.5 158.5t158.5 65.5zM223 416z" />
    <glyph glyph-name="circle-h" unicode="circle&#x2d;h" 
d="M256 -64q-69 0 -128 34.5t-93.5 93.5t-34.5 128t34.5 128t93.5 93.5t128 34.5t128 -34.5t93.5 -93.5t34.5 -128t-34.5 -128t-93.5 -93.5t-128 -34.5zM368 296q0 10 -7 17t-17 7t-17 -7t-7 -17v-80h-128v80q0 10 -7 17t-17 7t-17 -7t-7 -17v-208q0 -10 7 -17t17 -7t17 7
t7 17v80h128v-80q0 -10 7 -17t17 -7t17 7t7 17v104v104z" />
    <glyph glyph-name="square" unicode="square" horiz-adv-x="448" 
d="M0 352v-320q0 -26 19 -45t45 -19h320q26 0 45 19t19 45v320q0 26 -19 45t-45 19h-320q-26 0 -45 -19t-19 -45z" />
    <glyph glyph-name="play" unicode="play" horiz-adv-x="384" 
d="M73 409l288 -176q23 -14 23 -41t-23 -41l-288 -176q-24 -15 -48.5 -1t-24.5 42v352q0 28 24.5 42t48.5 -1z" />
    <glyph glyph-name="circle" unicode="circle" 
d="M256 -64q-69 0 -128 34.5t-93.5 93.5t-34.5 128t34.5 128t93.5 93.5t128 34.5t128 -34.5t93.5 -93.5t34.5 -128t-34.5 -128t-93.5 -93.5t-128 -34.5z" />
    <glyph glyph-name="circle-half-stroke" unicode="adjust" 
d="M448 192q0 -80 -56 -136t-136 -56v384q80 0 136 -56t56 -136zM0 192q0 -69 34.5 -128t93.5 -93.5t128 -34.5t128 34.5t93.5 93.5t34.5 128t-34.5 128t-93.5 93.5t-128 34.5t-128 -34.5t-93.5 -93.5t-34.5 -128z" />
    <glyph glyph-name="sun" unicode="sun" 
d="M361 446.5q-8 3.5 -15 -1.5l-90 -62l-90 62q-7 5 -15 1.5t-10 -11.5l-20 -108l-108 -20q-4 -1 -7 -3.5t-5 -5.5q-3 -9 2 -16l62 -90l-62 -90q-5 -7 -1.5 -15t11.5 -10l108 -20l20 -108q2 -8 10 -11.5t15 1.5l90 62l90 -62q7 -5 15 -1.5t10 11.5l20 108l108 20
q8 2 11.5 10t-1.5 15l-62 90l62 90q5 8 1.5 16t-11.5 9l-108 20l-20 108q-2 8 -10 11.5zM160 192q0 -26 13 -48t35 -35t48 -13t48 13t35 35t13 48t-13 48t-35 35t-48 13t-48 -13t-35 -35t-13 -48zM384 192q0 -23 -7.5 -44t-22 -38.5t-34.5 -28.5q-30 -17 -64 -17t-64 17
t-47 47t-17 64t17 64t47 47t64 17t64 -17t47 -47t17 -64z" />
    <glyph glyph-name="cloud" unicode="cloud" horiz-adv-x="640" 
d="M0 112q0 47 27 84t69 52v8q0 66 47 113t113 47q13 0 25 -2t23.5 -5.5t22 -9t20.5 -12t18.5 -14.5t16 -17.5t13.5 -19.5q24 16 53 16q40 0 68 -28t28 -68q0 -18 -6 -35q44 -9 73 -44t29 -81q0 -53 -37.5 -90.5t-90.5 -37.5h-368q-60 0 -102 42t-42 102z" />
    <glyph glyph-name="snowman" unicode="snowman" 
d="M341 307q11 22 11 45q0 40 -28 68t-68 28t-68 -28t-28 -68q0 -24 11 -45q3 -6 -1 -12q-11 -12 -17 -28l-49 21v40q0 10 -7 17t-17 7t-17 -7t-7 -17v-20l-23 10q-9 4 -18 0.5t-13 -13t-0.5 -18.5t13.5 -13l56 -24l73 -32q1 -14 5 -27q2 -6 -3 -11q-50 -47 -50 -116
q0 -67 48 -114q14 -14 37 -14h150q23 0 37 14q48 47 48 114q0 69 -50 116q-5 5 -3 11q4 13 5 28l73 31l56 24q10 4 13.5 13t-0.5 18.5t-13 13t-19 -0.5l-22 -10v20q0 10 -7 17t-17 7t-17 -7t-7 -17v-40l-48 -21q-7 15 -18 28q-4 6 -1 12zM224 352q-7 0 -11.5 4.5t-4.5 11.5
t4.5 11.5t11.5 4.5t11.5 -4.5t4.5 -11.5t-4.5 -11.5t-11.5 -4.5zM272 224q0 -7 -4.5 -11.5t-11.5 -4.5t-11.5 4.5t-4.5 11.5t4.5 11.5t11.5 4.5t11.5 -4.5t4.5 -11.5zM256 144q-7 0 -11.5 4.5t-4.5 11.5t4.5 11.5t11.5 4.5t11.5 -4.5t4.5 -11.5t-4.5 -11.5t-11.5 -4.5z
M272 96q0 -7 -4.5 -11.5t-11.5 -4.5t-11.5 4.5t-4.5 11.5t4.5 11.5t11.5 4.5t11.5 -4.5t4.5 -11.5zM288 352q-7 0 -11.5 4.5t-4.5 11.5t4.5 11.5t11.5 4.5t11.5 -4.5t4.5 -11.5t-4.5 -11.5t-11.5 -4.5zM240 328q0 7 4.5 11.5t11.5 4.5t11.5 -4.5t4.5 -11.5v-3q0 -5 -2 -9
l-9 -17q-2 -3 -5 -3t-5 3l-9 17q-2 4 -2 9v3z" />
    <glyph glyph-name="meteor" unicode="meteor" 
d="M494 447q2 1 4 1q6 0 10 -4t4 -10q0 -2 -1 -4l-75 -195l30 3q9 0 14.5 -8t0.5 -16l-102 -177q-28 -47 -75 -74t-101 -27q-84 0 -143.5 59.5t-59.5 143.5q0 54 27 101t74 75l177 102q6 3 11.5 2t9 -6t3.5 -11l-3 -30zM192 256q-34 0 -64 -17t-47 -47t-17 -64t17 -64
t47 -47t64 -17t64 17t47 47t17 64t-17 64t-47 47t-64 17zM192 160q0 -13 -9.5 -22.5t-22.5 -9.5t-22.5 9.5t-9.5 22.5t9.5 22.5t22.5 9.5t22.5 -9.5t9.5 -22.5zM208 64q-7 0 -11.5 4.5t-4.5 11.5t4.5 11.5t11.5 4.5t11.5 -4.5t4.5 -11.5t-4.5 -11.5t-11.5 -4.5z" />
    <glyph glyph-name="square-check" unicode="check&#x2d;square" horiz-adv-x="448" 
d="M64 416h320q26 0 45 -19t19 -45v-320q0 -26 -19 -45t-45 -19h-320q-26 0 -45 19t-19 45v320q0 26 19 45t45 19zM337 239q7 7 7 17t-7 17t-17 7t-17 -7l-111 -111l-47 47q-7 7 -17 7t-17 -7t-7 -17t7 -17l64 -64q7 -7 17 -7t17 7zM337 239z" />
    <glyph glyph-name="mug-hot" unicode="mug&#x2d;hot" 
d="M88 448q10 0 17 -7t7 -17q0 -11 5 -18.5t19 -19.5l1 -1q8 -7 13 -12t12 -14.5t10.5 -21t3.5 -25.5q0 -10 -7 -17t-17 -7t-17 7t-7 17q0 8 -3 14t-7 11t-14 13l-1 1q-8 7 -13 12t-12 14.5t-10.5 21t-3.5 25.5q0 10 7 17t17 7zM32 256h320h48q46 0 79 -33t33 -79t-33 -79
t-79 -33h-16q0 -40 -28 -68t-68 -28h-192q-40 0 -68 28t-28 68v192q0 13 9.5 22.5t22.5 9.5zM384 192v-96h16q20 0 34 14t14 34t-14 34t-34 14h-16zM224 424q0 -11 5 -18.5t19 -19.5l1 -1q8 -7 13 -12t12 -14.5t10.5 -21t3.5 -25.5q0 -10 -7 -17t-17 -7t-17 7t-7 17
q0 8 -3 14t-7 11t-14 13l-1 1q-8 7 -13 12t-12 14.5t-10.5 21t-3.5 25.5q0 10 7 17t17 7t17 -7t7 -17z" />
    <glyph glyph-name="hand-point-up" unicode="hand&#x2d;point&#x2d;up" horiz-adv-x="384" 
d="M32 416v-208h64v208q0 13 -9.5 22.5t-22.5 9.5t-22.5 -9.5t-9.5 -22.5zM224 256v-64q0 -13 9.5 -22.5t22.5 -9.5t22.5 9.5t9.5 22.5v64q0 13 -9.5 22.5t-22.5 9.5t-22.5 -9.5t-9.5 -22.5zM160 320q-13 0 -22.5 -9.5t-9.5 -22.5v-48q0 -13 9.5 -22.5t22.5 -9.5t22.5 9.5
t9.5 22.5v48q0 13 -9.5 22.5t-22.5 9.5zM320 224v-64q0 -13 9.5 -22.5t22.5 -9.5t22.5 9.5t9.5 22.5v64q0 13 -9.5 22.5t-22.5 9.5t-22.5 -9.5t-9.5 -22.5zM224 136q0 -30 -21 -51t-51 -21h-56q-7 0 -11.5 4.5t-4.5 11.5t4.5 11.5t11.5 4.5h56q17 0 28.5 11.5t11.5 28.5
t-11.5 28.5t-28.5 11.5h-88q-26 0 -45 -19t-19 -45v-27q0 -53 38 -91l11 -11q47 -47 113 -47h62q66 0 113 47t47 113v9q-15 -9 -32 -9q-21 0 -37.5 12t-22.5 31q-17 -11 -36 -11q-17 0 -32 9v-1z" />
    <glyph glyph-name="skull-crossbones" unicode="skull&#x2d;crossbones" horiz-adv-x="448" 
d="M368 320q0 53 -42 90.5t-102 37.5t-102 -37.5t-42 -90.5q0 -33 17.5 -61t46.5 -45v-22q0 -13 9.5 -22.5t22.5 -9.5h96q13 0 22.5 9.5t9.5 22.5v22q29 17 46.5 45t17.5 61zM168 272q-13 0 -22.5 9.5t-9.5 22.5t9.5 22.5t22.5 9.5t22.5 -9.5t9.5 -22.5t-9.5 -22.5
t-22.5 -9.5zM312 304q0 -13 -9.5 -22.5t-22.5 -9.5t-22.5 9.5t-9.5 22.5t9.5 22.5t22.5 9.5t22.5 -9.5t9.5 -22.5zM3 174q-6 -12 -1.5 -24.5t16.5 -18.5l134 -67l-134 -67q-12 -6 -16.5 -18.5t1.5 -24.5t18.5 -16.5t24.5 1.5l178 89l178 -89q12 -6 24.5 -1.5t18.5 16.5
t1.5 24.5t-16.5 18.5l-134 67l134 67q12 6 16.5 18.5t-1.5 24.5t-18.5 16.5t-24.5 -1.5l-178 -89l-178 89q-12 6 -24.5 1.5t-18.5 -16.5z" />
    <glyph glyph-name="circle-radiation" unicode="circle&#x2d;radiation" 
d="M256 384q-51 0 -96 -25.5t-70.5 -70.5t-25.5 -96t25.5 -96t70.5 -70.5t96 -25.5t96 25.5t70.5 70.5t25.5 96t-25.5 96t-70.5 70.5t-96 25.5zM256 -64q-69 0 -128 34.5t-93.5 93.5t-34.5 128t34.5 128t93.5 93.5t128 34.5t128 -34.5t93.5 -93.5t34.5 -128t-34.5 -128
t-93.5 -93.5t-128 -34.5zM200 192h-72q-14 0 -22.5 9.5t-6.5 22.5q11 52 51 88q10 8 22.5 5.5t19.5 -14.5l36 -63q-28 -16 -28 -48zM228 144q13 -8 28 -8t28 8l36 -63q7 -11 3 -24t-16 -17q-25 -8 -51 -8t-51 8q-12 4 -16 17t3 24zM312 192q0 32 -28 49l36 62
q7 12 19.5 14.5t22.5 -5.5q40 -36 51 -88q2 -13 -6.5 -22.5t-22.5 -9.5h-72zM256 160q-13 0 -22.5 9.5t-9.5 22.5t9.5 22.5t22.5 9.5t22.5 -9.5t9.5 -22.5t-9.5 -22.5t-22.5 -9.5z" />
    <glyph glyph-name="biohazard" unicode="biohazard" horiz-adv-x="576" 
d="M173 448q4 0 6 -3t1 -7q-11 -26 -7.5 -55.5t15.5 -54t38.5 -40.5t61.5 -16t61.5 16t38.5 40.5t15.5 54t-7.5 55.5q-1 4 1 7t6 3q3 0 5 -2q48 -49 48 -118q0 -38 -17 -73q34 -4 65 -21q51 -28 72 -82q1 -3 -1 -5q-4 -7 -10 -2q-28 25 -63.5 34t-72 -4t-58.5 -51
q-23 -40 -16.5 -75.5t32.5 -61.5t62 -36q8 -3 4 -10q-2 -2 -5 -3q-58 -9 -109 19q-31 17 -51 44q-20 -27 -50 -44q-52 -28 -110 -19q-3 1 -5 3q-4 7 4 10q36 10 62 36t32.5 61.5t-16.5 75.5q-22 37 -58.5 50.5t-72 4.5t-62.5 -33q-7 -6 -11 1q-2 2 -1 5q21 54 72 82
q30 17 65 21q-17 35 -17 73q0 69 48 118q2 2 5 2zM240 176q0 -28 24 -41.5t48 0t24 41.5t-24 41.5t-48 0t-24 -41.5zM182 30q-6 -11 -17 -22q-71 53 -83 140q14 3 27 2q22 -1 40 -12q11 -40 41 -68q2 -20 -8 -40zM288 384q42 0 81 -17q-3 -12 -9 -23q-11 -20 -30 -30
q-20 6 -42 6t-42 -6q-19 10 -30 30q-6 11 -9 23q39 17 81 17zM427 138q18 11 40 12q13 1 27 -2q-12 -87 -83 -140q-10 11 -17 22q-10 19 -8 40q30 28 41 68zM427 138z" />
    <glyph glyph-name="ankh" unicode="ankh" horiz-adv-x="320" 
d="M96 320q0 -55 47 -104q8 -9 17 -17q9 8 17 17q47 49 47 104q0 26 -19 45t-45 19t-45 -19t-19 -45zM160 448q53 0 90.5 -37.5t37.5 -90.5q0 -68 -47 -128h47q13 0 22.5 -9.5t9.5 -22.5t-9.5 -22.5t-22.5 -9.5h-96v-160q0 -13 -9.5 -22.5t-22.5 -9.5t-22.5 9.5t-9.5 22.5
v160h-96q-13 0 -22.5 9.5t-9.5 22.5t9.5 22.5t22.5 9.5h47q-47 60 -47 128q0 53 37.5 90.5t90.5 37.5z" />
    <glyph glyph-name="star-and-crescent" unicode="star&#x2d;and&#x2d;crescent" 
d="M0 192q0 -106 75 -181t181 -75q49 0 94 18q12 5 9 18t-16 12h-15q-86 0 -147 61t-61 147t61 147t147 61q7 0 15 -1q13 -1 16 12.5t-9 18.5q-45 18 -94 18q-106 0 -181 -75t-75 -181zM375 311l-31 -64q-2 -5 -7 -6l-71 -10q-6 -1 -7.5 -6.5t2.5 -9.5l51 -50q3 -3 3 -8
l-12 -70q-1 -6 3.5 -9.5t10.5 -0.5l63 33q4 2 8 0l63 -33q6 -3 10.5 0.5t3.5 9.5l-12 70q-1 5 3 8l51 50q4 4 2.5 9.5t-7.5 6.5l-71 10q-5 1 -7 6l-31 64q-3 5 -9 5t-9 -5zM375 311z" />
    <glyph glyph-name="khanda" unicode="khanda" 
d="M246 444l-48 -40q-10 -8 -4 -20v0v0q1 -1 2 -3q1 -3 4 -8q0 -1 1 -3q-26 -15 -41.5 -41t-15.5 -57q0 -21 7 -40t20 -33.5t30 -24.5v-1q-1 -1 -1 -2l-2.5 -5l-1.5 -3q-1 -2 -2 -3v0v0q-6 -12 4 -20l42 -35v-20l-34 24l-42 28q-32 22 -50 56.5t-18 73.5q0 48 27 88l2 4
q7 10 -1 19.5t-19 3.5l7 -14l-7 14v0h-1h-1q0 -1 -1.5 -1.5l-1.5 -0.5q-4 -3 -12 -8q-19 -13 -35 -29q-53 -52 -53 -119q0 -65 51 -134q16 -21 35 -39q7 -8 11 -11l2 -2l1 -1l1 -1h1v0l10 12l-10 -12q8 -7 18 -2l76 43l32 -22l-46 -32q-3 1 -6 1q-10 0 -17 -7t-7 -17t7 -17
t17 -7q9 0 15.5 6t8.5 14l40 28v-28q-16 -9 -16 -28q0 -13 9.5 -22.5t22.5 -9.5t22.5 9.5t9.5 22.5q0 9 -4.5 16.5t-11.5 11.5v29l40 -28q1 -9 8 -15t16 -6q10 0 17 7t7 17t-7 17t-17 7q-3 0 -6 -1l-45 32l33 22l75 -43q10 -5 18 2l-10 12l10 -12v0h1l1 1l3 3l11 11
q19 18 35 39q51 69 51 134q0 67 -53 119q-16 17 -35 29q-5 4 -12 8l-1.5 0.5t-1.5 1.5h-1h-1v0l-7 -14l7 14q-11 6 -19 -3.5t-1 -19.5l3 -4q26 -40 26 -88q0 -25 -8 -49.5t-23.5 -45t-36.5 -35.5l-41 -28l-36 -24v20l42 35q10 8 4 20v0v0q-1 1 -1 3q-2 3 -5 8q0 1 -1 3
q26 15 41.5 41t15.5 57q0 21 -7 40t-20 33.5t-30 24.5l0.5 1t0.5 2q1 1 2 3t1.5 3.5t1.5 1.5q0 2 1 3v0v0v0q6 12 -4 20l-48 40q-10 9 -20 0zM220 325q12 -33 12 -53t-12 -53q-28 19 -28 53t28 53zM292 219q-12 33 -12 53t12 53q28 -19 28 -53t-28 -53zM292 219z" />
    <glyph glyph-name="peace" unicode="peace" 
d="M224 3q-53 9 -94 44l94 77v-121zM89 97q-25 44 -25 95q0 71 45.5 124.5t114.5 64.5v-174zM382 47q-41 -35 -94 -44v121zM423 97l-135 110v174q69 -11 114.5 -64.5t45.5 -124.5q0 -51 -25 -95zM0 192q0 -69 34.5 -128t93.5 -93.5t128 -34.5t128 34.5t93.5 93.5t34.5 128
t-34.5 128t-93.5 93.5t-128 34.5t-128 -34.5t-93.5 -93.5t-34.5 -128z" />
    <glyph glyph-name="yin-yang" unicode="yin&#x2d;yang" 
d="M256 384q-80 0 -136 -56t-56 -136t56 -136t136 -56q-40 0 -68 28t-28 68t28 68t68 28t68 28t28 68t-28 68t-68 28zM256 -64q-69 0 -128 34.5t-93.5 93.5t-34.5 128t34.5 128t93.5 93.5t128 34.5t128 -34.5t93.5 -93.5t34.5 -128t-34.5 -128t-93.5 -93.5t-128 -34.5z
M288 288q0 -13 -9.5 -22.5t-22.5 -9.5t-22.5 9.5t-9.5 22.5t9.5 22.5t22.5 9.5t22.5 -9.5t9.5 -22.5zM224 96q0 -13 9.5 -22.5t22.5 -9.5t22.5 9.5t9.5 22.5t-9.5 22.5t-22.5 9.5t-22.5 -9.5t-9.5 -22.5z" />
    <glyph glyph-name="dharmachakra" unicode="dharmachakra" 
d="M338 242q8 -13 11 -28l65 5q-6 36 -28 66zM478 223h1q9 0 16.5 -4t12 -11t4.5 -16q0 -13 -10 -22.5t-23 -8.5h-1q-8 -58 -43 -104v-1q11 -9 11.5 -22t-9.5 -23t-23 -9.5t-22 10.5l-1 1q-46 -35 -104 -43v-1q1 -13 -8.5 -23t-22.5 -10t-22.5 10t-8.5 23v1q-58 8 -104 43
l-1 -1q-9 -10 -22 -10t-23 9t-9.5 22.5t10.5 22.5l1 1q-35 46 -43 104h-1q-13 -1 -23 8.5t-10 22.5t10 22.5t23 8.5h1q8 58 43 104l-1 1q-10 9 -10 22t9 23t22.5 9.5t22.5 -10.5l1 -1q46 35 104 43v1q-1 13 8.5 23t22.5 10t22.5 -10t8.5 -23v-1q58 -8 104 -43l1 1
q9 10 22 10t23 -9t9.5 -22.5t-11.5 -22.5v-1q35 -46 43 -104zM163 322l43 -48q13 8 28 11l-5 65q-36 -6 -66 -28zM98 219l65 -5q3 16 11 28l-48 43q-22 -30 -28 -66zM126 99l48 43q-8 13 -11 28l-65 -5q6 -36 28 -66zM229 34l5 65q-15 3 -28 11l-43 -48q30 -22 66 -28z
M349 62l-43 48q-13 -8 -28 -11l5 -65q36 6 66 28zM414 165l-64 5q-4 -16 -12 -28l48 -43q22 30 28 66zM349 322q-30 22 -66 28l-5 -65q16 -3 28 -11zM256 224q-13 0 -22.5 -9.5t-9.5 -22.5t9.5 -22.5t22.5 -9.5t22.5 9.5t9.5 22.5t-9.5 22.5t-22.5 9.5z" />
    <glyph glyph-name="face-frown" unicode="face&#x2d;frown" 
d="M256 -64q-69 0 -128 34.5t-93.5 93.5t-34.5 128t34.5 128t93.5 93.5t128 34.5t128 -34.5t93.5 -93.5t34.5 -128t-34.5 -128t-93.5 -93.5t-128 -34.5zM159 59q10 30 36.5 49.5t60.5 19.5t60.5 -19.5t36.5 -49.5q2 -6 7.5 -9t12 -1t9.5 7.5t1 12.5q-12 40 -47.5 65.5
t-79.5 25.5t-79.5 -25.5t-47.5 -65.5q-2 -6 1 -12t9.5 -8t12 1t7.5 9zM144 240q0 -13 9.5 -22.5t23 -9.5t22.5 9.5t9 22.5t-9 22.5t-22.5 9.5t-23 -9.5t-9.5 -22.5zM336.5 272q-13.5 0 -23 -9.5t-9.5 -22.5t9.5 -22.5t23 -9.5t22.5 9.5t9 22.5t-9 22.5t-22.5 9.5z" />
    <glyph glyph-name="mercury" unicode="mercury" horiz-adv-x="384" 
d="M72 441q-10 -8 -11.5 -21.5t6.5 -23.5q12 -15 26 -26q-35 -24 -56 -62.5t-21 -83.5q0 -66 43.5 -116t108.5 -58v-26h-32q-10 0 -17 -7t-7 -17t7 -17t17 -7h32v-16q0 -10 7 -17t17 -7t17 7t7 17v16h32q10 0 17 7t7 17t-7 17t-17 7h-32v26q65 8 108.5 58t43.5 116
q0 45 -21 83.5t-56 62.5q14 11 26 26q8 10 6.5 23.5t-11.5 21.5t-23.5 6.5t-21.5 -11.5q-29 -36 -75 -36t-75 36q-8 10 -21.5 11.5t-23.5 -6.5zM80 224q0 30 15 56t41 41t56 15t56 -15t41 -41t15 -56q0 -20 -6.5 -38.5t-19.5 -33.5t-30 -25q-26 -15 -56 -15t-56 15t-41 41
t-15 56z" />
    <glyph glyph-name="venus" unicode="venus" horiz-adv-x="384" 
d="M80 272q0 -15 4 -29.5t11 -26.5t17.5 -23t23.5 -18q26 -15 56 -15t56 15t41 41t15 56t-15 56t-41 41t-56 15t-56 -15q-17 -10 -30 -25t-19.5 -33.5t-6.5 -38.5zM224 99v-35h32q13 0 22.5 -9.5t9.5 -22.5t-9.5 -22.5t-22.5 -9.5h-32v-32q0 -13 -9.5 -22.5t-22.5 -9.5
t-22.5 9.5t-9.5 22.5v32h-32q-13 0 -22.5 9.5t-9.5 22.5t9.5 22.5t22.5 9.5h32v35q-62 11 -103 60t-41 113q0 73 51.5 124.5t124.5 51.5t124.5 -51.5t51.5 -124.5q0 -64 -41 -113t-103 -60z" />
    <glyph glyph-name="mars" unicode="mars" horiz-adv-x="448" 
d="M290 401q-6 -15 5 -26l33 -33l-52 -53q-45 31 -100 31q-73 0 -124.5 -51.5t-51.5 -124.5t51.5 -124.5t124.5 -51.5t124.5 51.5t51.5 124.5q0 55 -31 100l53 52l33 -33q11 -11 26 -5t15 22v112q0 10 -7 17t-17 7h-112q-16 0 -22 -15zM400 368zM176 32q-30 0 -56 15t-41 41
t-15 56t15 56t41 41t56 15t56 -15t41 -41t15 -56t-15 -56t-41 -41t-56 -15z" />
    <glyph glyph-name="chess-king" unicode="chess&#x2d;king" horiz-adv-x="448" 
d="M224 448q-13 0 -22.5 -9.5t-9.5 -22.5v-16h-16q-13 0 -22.5 -9.5t-9.5 -22.5t9.5 -22.5t22.5 -9.5h16v-48h-152q-17 0 -28.5 -11.5t-11.5 -28.5q0 -8 3 -15l77 -185h288l77 185q3 7 3 15q0 17 -11.5 28.5t-28.5 11.5h-152v48h16q13 0 22.5 9.5t9.5 22.5t-9.5 22.5
t-22.5 9.5h-16v16q0 13 -9.5 22.5t-22.5 9.5zM39 -25q-7 -7 -7 -16.5t6.5 -16t16.5 -6.5h338q10 0 16.5 6.5t6.5 16t-7 16.5l-41 41h-288z" />
    <glyph glyph-name="chess-queen" unicode="chess&#x2d;queen" 
d="M256 448q-32 0 -48.5 -28t0 -56t48.5 -28t48.5 28t0 56t-48.5 28zM134 304q-5 -21 -22.5 -34.5t-39.5 -13.5q-16 0 -30 7.5t-27 -1.5q-10 -6 -13 -17t3 -21l107 -176h16h40h176h40h16l107 176q6 10 3 21t-13 17q-13 9 -27 1q-14 -7 -30 -7q-15 0 -28 6t-22 17t-12 25
q-3 10 -11 17t-19 7q-19 0 -28 -17q-9 -18 -26 -28.5t-38 -10.5t-38 10.5t-26 28.5q-9 17 -28 17q-11 0 -19 -7t-11 -17zM256 224zM112 16l-41 -41q-7 -7 -7 -16.5t6.5 -16t16.5 -6.5h338q10 0 16.5 6.5t6.5 16t-7 16.5l-41 41h-288z" />
    <glyph glyph-name="chess-rook" unicode="chess&#x2d;rook" horiz-adv-x="448" 
d="M32 256q0 -16 13 -26l51 -38l-16 -144h288l-16 144l51 38q13 10 13 26v144q0 7 -4.5 11.5t-11.5 4.5h-64q-7 0 -11.5 -4.5t-4.5 -11.5v-40q0 -8 -8 -8h-32q-8 0 -8 8v40q0 7 -4.5 11.5t-11.5 4.5h-64q-7 0 -11.5 -4.5t-4.5 -11.5v-40q0 -8 -8 -8h-32q-8 0 -8 8v40
q0 7 -4.5 11.5t-11.5 4.5h-64q-7 0 -11.5 -4.5t-4.5 -11.5v-144zM208 160q-7 0 -11.5 4.5t-4.5 11.5v48q0 13 9.5 22.5t22.5 9.5t22.5 -9.5t9.5 -22.5v-48q0 -7 -4.5 -11.5t-11.5 -4.5h-32zM23 -25q-7 -7 -7 -16.5t6.5 -16t16.5 -6.5h370q10 0 16.5 6.5t6.5 16t-7 16.5
l-41 41h-320z" />
    <glyph glyph-name="chess-bishop" unicode="chess&#x2d;bishop" horiz-adv-x="320" 
d="M128 448h64q13 0 22.5 -9.5t9.5 -22.5q0 -8 -3.5 -15t-10 -11.5t-13.5 -5.5q45 -43 74 -91l-106 -106q-5 -4 -5 -11t4.5 -11.5t11.5 -4.5t11 5l100 99q25 -53 25 -104q0 -57 -56 -85v-27h-192v27q-56 28 -56 85q0 114 115 224q-11 2 -19 11t-8 21q0 13 9.5 22.5t22.5 9.5
zM48 16h224l41 -41q7 -7 7 -16.5t-6.5 -16t-16.5 -6.5h-274q-10 0 -16.5 6.5t-6.5 16t7 16.5z" />
    <glyph glyph-name="chess-knight" unicode="chess&#x2d;knight" horiz-adv-x="448" 
d="M96 400l-21 10q-11 6 -11 18q0 8 6 14t14 6h140q80 0 136 -56.5t56 -135.5v-15q0 -17 -3 -34l-29 -159h-320q0 32 26 50l128 87q8 6 8.5 15.5t-7.5 15.5q-11 8 -22 0l-50 -37q-3 -3 -7 -5l-3 -2q-25 -12 -48 3l-11 7q-14 10 -14 27v133q0 26 19 45zM120 332q0 -8 6 -14
t14 -6t14 6t6 14t-6 14t-14 6t-14 -6t-6 -14zM23 -25l41 41h320l41 -41q7 -7 7 -16.5t-6.5 -16t-16.5 -6.5h-370q-10 0 -16.5 6.5t-6.5 16t7 16.5z" />
    <glyph glyph-name="chess-pawn" unicode="chess&#x2d;pawn" horiz-adv-x="320" 
d="M216 224h8q13 0 22.5 -9.5t9.5 -22.5q0 -12 -8 -21t-20 -11l12 -112h-160l12 112q-12 2 -20 11t-8 21q0 13 9.5 22.5t22.5 9.5h8q-14 9 -25 22.5t-17 30.5t-6 35q0 43 30.5 73.5t73.5 30.5t73.5 -30.5t30.5 -73.5q0 -27 -13 -50.5t-35 -37.5zM23 -25l41 41h192l41 -41
q7 -7 7 -16.5t-6.5 -16t-16.5 -6.5h-242q-10 0 -16.5 6.5t-6.5 16t7 16.5z" />
    <glyph glyph-name="heart" unicode="heart" 
d="M48 148q-48 44 -48 109v6q0 52 34 92t85 49q35 6 68 -5t57 -35l12 -12l12 12q24 24 57 35t68 5q51 -9 85 -49t34 -92v-6q0 -65 -48 -109l-180 -169q-12 -11 -28 -11t-28 11zM48 148z" />
    <glyph glyph-name="diamond" unicode="diamond" 
d="M284 436l216 -216q12 -11 12 -28t-12 -28l-216 -216q-11 -12 -28 -12t-28 12l-216 216q-12 11 -12 28t12 28l216 216q11 12 28 12t28 -12zM284 436z" />
    <glyph glyph-name="recycle" unicode="recycle" 
d="M175 403l-18 -28q-7 -12 -4 -25t15 -20q11 -6 24 -3t20 14l17 28q9 15 27 15t27 -15l37 -60l-28 -16q-14 -8 -12 -24t18 -20l87 -24q10 -2 18.5 3t11.5 14l23 88q4 15 -8.5 25t-26.5 2l-27 -16l-39 62q-13 21 -34.5 33t-46.5 12t-46.5 -12t-34.5 -33zM429 196
q-11 -7 -14 -20t4 -24l24 -39q5 -8 5 -17q0 -13 -9.5 -22.5t-22.5 -9.5h-96v32q0 16 -15 22t-26 -5l-64 -64q-7 -7 -7 -17t7 -17l64 -64q11 -11 26 -5t15 22v32h96q40 0 68 28t28 68q0 28 -14 51l-25 39q-7 11 -19.5 14t-24.5 -4zM65 227l-50 -80q-15 -23 -15 -51
q0 -39 28 -67.5t68 -28.5h32q13 0 22.5 9.5t9.5 22.5t-9.5 22.5t-22.5 9.5h-32q-9 0 -16.5 4.5t-11.5 11.5t-4 16t5 17l51 82l27 -15q14 -8 26.5 1.5t8.5 25.5l-23 87q-3 10 -11.5 15t-18.5 2l-87 -23q-16 -4 -18 -20t12 -24zM65 227z" />
    <glyph glyph-name="dice-one" unicode="dice&#x2d;one" horiz-adv-x="448" 
d="M64 416h320q26 0 45 -19t19 -45v-320q0 -26 -19 -45t-45 -19h-320q-26 0 -45 19t-19 45v320q0 26 19 45t45 19zM224 224q-13 0 -22.5 -9.5t-9.5 -22.5t9.5 -22.5t22.5 -9.5t22.5 9.5t9.5 22.5t-9.5 22.5t-22.5 9.5z" />
    <glyph glyph-name="dice-two" unicode="dice&#x2d;two" horiz-adv-x="448" 
d="M0 352v-320q0 -26 19 -45t45 -19h320q26 0 45 19t19 45v320q0 26 -19 45t-45 19h-320q-26 0 -45 -19t-19 -45zM352 96q0 -13 -9.5 -22.5t-22.5 -9.5t-22.5 9.5t-9.5 22.5t9.5 22.5t22.5 9.5t22.5 -9.5t9.5 -22.5zM128 256q-13 0 -22.5 9.5t-9.5 22.5t9.5 22.5t22.5 9.5
t22.5 -9.5t9.5 -22.5t-9.5 -22.5t-22.5 -9.5z" />
    <glyph glyph-name="dice-three" unicode="dice&#x2d;three" horiz-adv-x="448" 
d="M64 416h320q26 0 45 -19t19 -45v-320q0 -26 -19 -45t-45 -19h-320q-26 0 -45 19t-19 45v320q0 26 19 45t45 19zM128 320q-13 0 -22.5 -9.5t-9.5 -22.5t9.5 -22.5t22.5 -9.5t22.5 9.5t9.5 22.5t-9.5 22.5t-22.5 9.5zM192 192q0 -13 9.5 -22.5t22.5 -9.5t22.5 9.5t9.5 22.5
t-9.5 22.5t-22.5 9.5t-22.5 -9.5t-9.5 -22.5zM320 128q-13 0 -22.5 -9.5t-9.5 -22.5t9.5 -22.5t22.5 -9.5t22.5 9.5t9.5 22.5t-9.5 22.5t-22.5 9.5z" />
    <glyph glyph-name="dice-four" unicode="dice&#x2d;four" horiz-adv-x="448" 
d="M0 352v-320q0 -26 19 -45t45 -19h320q26 0 45 19t19 45v320q0 26 -19 45t-45 19h-320q-26 0 -45 -19t-19 -45zM160 288q0 -13 -9.5 -22.5t-22.5 -9.5t-22.5 9.5t-9.5 22.5t9.5 22.5t22.5 9.5t22.5 -9.5t9.5 -22.5zM128 64q-13 0 -22.5 9.5t-9.5 22.5t9.5 22.5t22.5 9.5
t22.5 -9.5t9.5 -22.5t-9.5 -22.5t-22.5 -9.5zM352 288q0 -13 -9.5 -22.5t-22.5 -9.5t-22.5 9.5t-9.5 22.5t9.5 22.5t22.5 9.5t22.5 -9.5t9.5 -22.5zM320 64q-13 0 -22.5 9.5t-9.5 22.5t9.5 22.5t22.5 9.5t22.5 -9.5t9.5 -22.5t-9.5 -22.5t-22.5 -9.5z" />
    <glyph glyph-name="dice-five" unicode="dice&#x2d;five" horiz-adv-x="448" 
d="M64 416h320q26 0 45 -19t19 -45v-320q0 -26 -19 -45t-45 -19h-320q-26 0 -45 19t-19 45v320q0 26 19 45t45 19zM128 320q-13 0 -22.5 -9.5t-9.5 -22.5t9.5 -22.5t22.5 -9.5t22.5 9.5t9.5 22.5t-9.5 22.5t-22.5 9.5zM96 96q0 -13 9.5 -22.5t22.5 -9.5t22.5 9.5t9.5 22.5
t-9.5 22.5t-22.5 9.5t-22.5 -9.5t-9.5 -22.5zM224 224q-13 0 -22.5 -9.5t-9.5 -22.5t9.5 -22.5t22.5 -9.5t22.5 9.5t9.5 22.5t-9.5 22.5t-22.5 9.5zM288 288q0 -13 9.5 -22.5t22.5 -9.5t22.5 9.5t9.5 22.5t-9.5 22.5t-22.5 9.5t-22.5 -9.5t-9.5 -22.5zM320 128
q-13 0 -22.5 -9.5t-9.5 -22.5t9.5 -22.5t22.5 -9.5t22.5 9.5t9.5 22.5t-9.5 22.5t-22.5 9.5z" />
    <glyph glyph-name="dice-six" unicode="dice&#x2d;six" horiz-adv-x="448" 
d="M0 352v-320q0 -26 19 -45t45 -19h320q26 0 45 19t19 45v320q0 26 -19 45t-45 19h-320q-26 0 -45 -19t-19 -45zM160 288q0 -13 -9.5 -22.5t-22.5 -9.5t-22.5 9.5t-9.5 22.5t9.5 22.5t22.5 9.5t22.5 -9.5t9.5 -22.5zM128 160q-13 0 -22.5 9.5t-9.5 22.5t9.5 22.5t22.5 9.5
t22.5 -9.5t9.5 -22.5t-9.5 -22.5t-22.5 -9.5zM160 96q0 -13 -9.5 -22.5t-22.5 -9.5t-22.5 9.5t-9.5 22.5t9.5 22.5t22.5 9.5t22.5 -9.5t9.5 -22.5zM320 256q-13 0 -22.5 9.5t-9.5 22.5t9.5 22.5t22.5 9.5t22.5 -9.5t9.5 -22.5t-9.5 -22.5t-22.5 -9.5zM352 192
q0 -13 -9.5 -22.5t-22.5 -9.5t-22.5 9.5t-9.5 22.5t9.5 22.5t22.5 9.5t22.5 -9.5t9.5 -22.5zM320 64q-13 0 -22.5 9.5t-9.5 22.5t9.5 22.5t22.5 9.5t22.5 -9.5t9.5 -22.5t-9.5 -22.5t-22.5 -9.5z" />
    <glyph glyph-name="anchor" unicode="anchor" horiz-adv-x="576" 
d="M320 352q0 13 -9.5 22.5t-22.5 9.5t-22.5 -9.5t-9.5 -22.5t9.5 -22.5t22.5 -9.5t22.5 9.5t9.5 22.5zM341 272h11q13 0 22.5 -9.5t9.5 -22.5t-9.5 -22.5t-22.5 -9.5h-32v-208h48q40 0 68 28t28 68v6l-7 -7q-7 -7 -17 -7t-17 7t-7 17t7 17l56 56q7 7 17 7t17 -7l56 -56
q7 -7 7 -17t-7 -17t-17 -7t-17 7l-7 7v-6q0 -66 -47 -113t-113 -47h-80h-80q-66 0 -113 47t-47 113v6l-7 -7q-7 -7 -17 -7t-17 7t-7 17t7 17l56 56q7 7 17 7t17 -7l56 -56q7 -7 7 -17t-7 -17t-17 -7t-17 7l-7 7v-6q0 -40 28 -68t68 -28h48v208h-32q-13 0 -22.5 9.5
t-9.5 22.5t9.5 22.5t22.5 9.5h11q-43 28 -43 80q0 40 28 68t68 28t68 -28t28 -68q0 -52 -43 -80z" />
    <glyph glyph-name="scale-balanced" unicode="balance&#x2d;scale" horiz-adv-x="640" 
d="M384 416q-24 32 -64 32t-64 -32h-128q-13 0 -22.5 -9.5t-9.5 -22.5t9.5 -22.5t22.5 -9.5h114q8 -41 46 -57v-295h-160q-13 0 -22.5 -9.5t-9.5 -22.5t9.5 -22.5t22.5 -9.5h192h192q13 0 22.5 9.5t9.5 22.5t-9.5 22.5t-22.5 9.5h-160v295q38 16 46 57h114q13 0 22.5 9.5
t9.5 22.5t-9.5 22.5t-22.5 9.5h-128zM440 128l72 124l72 -124h-144zM512 32q47 0 82.5 22.5t43.5 56.5q3 15 -7 32l-95 163q-8 14 -24 14t-24 -14l-95 -163q-10 -17 -7 -32q8 -34 43.5 -56.5t82.5 -22.5zM127 252l72 -124h-145zM1 111q8 -34 43.5 -56.5t82.5 -22.5
t82.5 22.5t43.5 56.5q3 15 -7 32l-95 163q-8 14 -24 14t-24 -14l-95 -163q-11 -17 -7 -32z" />
    <glyph glyph-name="gear" unicode="cog" 
d="M496 281v1q-6 17 -16 34l-4 8q-10 16 -23 31q-9 12 -24 7l-56 -18q-20 16 -44 26l-12 57q-4 15 -18 18q-22 3 -43 3q-22 0 -42 -4q-15 -2 -19 -17l-12 -57q-24 -10 -44 -26l-56 18q-15 5 -24 -7q-13 -15 -22 -31l-5 -8q-10 -17 -16 -35q-5 -14 6 -24l44 -40
q-2 -12 -2 -25t2 -26l-44 -39q-11 -10 -6 -25q6 -17 16 -34l5 -8q9 -16 22 -31q9 -12 24 -7l56 18q20 -16 44 -26l12 -57q4 -15 18 -17q21 -4 42.5 -4t42.5 4q15 2 19 17l12 57q24 10 44 26l56 -18q15 -5 24 7q13 15 22 31l5 8q9 17 16 35q5 14 -6 24l-44 40q2 12 2 25
t-2 25l44 40q11 10 6 24zM256 112q-46 0 -69 40t0 80t69 40t69 -40q11 -19 11 -40t-11 -40q-23 -40 -69 -40z" />
    <glyph glyph-name="atom" unicode="atom" 
d="M256 49q17 -7 35 -13q-18 -36 -35 -36t-35 36q16 5 35 13zM446 192q54 74 24 128q-30 53 -116 43q-35 85 -98 85t-98 -85q-86 10 -116 -43q-30 -54 24 -128q-54 -74 -24 -128q30 -53 116 -43q35 -85 98 -85t98 85q86 -10 116 43q30 54 -24 128zM380 125q12 9 22 18
q20 -32 12 -48q-7 -13 -40 -12q4 20 6 42zM374 301q33 1 40 -12q8 -16 -12 -48q-10 9 -22 18q-2 23 -6 42zM291 348q-16 -5 -35 -13q-17 7 -35 13q18 36 35 36t35 -36zM132 259l-22 -18q-20 32 -12 48q7 13 41 12q-4 -20 -7 -42zM110 143q10 -9 22 -18q2 -23 6 -42
q-33 -1 -40 12q-8 16 12 48zM336 192q0 -46 -40 -69t-80 0t-40 69t40 69t80 0t40 -69zM256 224q-13 0 -22.5 -9.5t-9.5 -22.5t9.5 -22.5t22.5 -9.5t22.5 9.5t9.5 22.5t-9.5 22.5t-22.5 9.5z" />
    <glyph glyph-name="triangle-exclamation" unicode="exclamation&#x2d;triangle" 
d="M256 416q-23 0 -34 -20l-216 -368q-12 -20 -0.5 -40t34.5 -20h432q23 0 34.5 20t-0.5 40l-216 368q-11 20 -34 20zM256 288q10 0 17 -7t7 -17v-112q0 -10 -7 -17t-17 -7t-17 7t-7 17v112q0 10 7 17t17 7zM288 64q0 -13 -9.5 -22.5t-22.5 -9.5t-22.5 9.5t-9.5 22.5
t9.5 22.5t22.5 9.5t22.5 -9.5t9.5 -22.5z" />
    <glyph glyph-name="bolt" unicode="bolt" horiz-adv-x="448" 
d="M349 403l-77 -179h112q22 0 30 -20.5t-9 -35.5l-256 -224q-19 -17 -40 -2q-9 7 -12 17.5t2 21.5l77 179h-112q-22 0 -30 21q-8 20 9 35l256 224q19 17 40 2q9 -7 12 -17.5t-2 -21.5z" />
    <glyph glyph-name="venus-double" unicode="venus&#x2d;double" horiz-adv-x="640" 
d="M192 160q-30 0 -56 15t-41 41t-15 56t15 56t41 41t56 15q10 0 19.5 -1.5t19 -5t17.5 -8.5t15.5 -11t14 -13.5t11.5 -16.5q15 -26 15 -56t-15 -56t-41 -41t-56 -15zM368 272q0 73 -51.5 124.5t-124.5 51.5t-124.5 -51.5t-51.5 -124.5q0 -64 41 -113t103 -60v-35h-32
q-13 0 -22.5 -9.5t-9.5 -22.5t9.5 -22.5t22.5 -9.5h32v-32q0 -13 9.5 -22.5t22.5 -9.5t22.5 9.5t9.5 22.5v32h32q13 0 22.5 9.5t9.5 22.5t-9.5 22.5t-22.5 9.5h-32v35q30 5 57 21t46 38.5t30 52t11 61.5zM344 130q32 -24 72 -31v-35h-32q-13 0 -22.5 -9.5t-9.5 -22.5
t9.5 -22.5t22.5 -9.5h32v-32q0 -13 9.5 -22.5t22.5 -9.5t22.5 9.5t9.5 22.5v32h32q13 0 22.5 9.5t9.5 22.5t-9.5 22.5t-22.5 9.5h-32v35q62 11 103 60t41 113q0 73 -51.5 124.5t-124.5 51.5q-58 0 -104 -34q22 -24 36 -53q30 23 68 23q46 0 79 -33t33 -79t-33 -79t-79 -33
q-38 0 -68 23q-14 -29 -36 -53z" />
    <glyph glyph-name="mars-double" unicode="mars&#x2d;double" horiz-adv-x="640" 
d="M312 416h112q10 0 17 -7t7 -17v-112q0 -16 -15 -22t-26 5l-33 33l-53 -52q31 -45 31 -100q0 -73 -51.5 -124.5t-124.5 -51.5t-124.5 51.5t-51.5 124.5t51.5 124.5t124.5 51.5q55 0 100 -31l52 53l-33 33q-11 11 -5 26t22 15zM400 368zM64 144q0 -30 15 -56t41 -41t56 -15
t56 15t41 41t15 56t-15 56t-41 41t-56 15t-56 -15t-41 -41t-15 -56zM368 -32q-34 0 -64 12q29 22 48 53q8 -1 16 -1q46 0 79 33t33 79q0 50 -37 83l1 0.5l1 0.5q16 7 25.5 21t9.5 31v21l40 41l-33 33q-7 7 -7 17v0q0 5 2 9q6 15 22 15h112q10 0 17 -7t7 -17v-112
q0 -16 -15 -22t-26 5l-33 33l-53 -52q31 -45 31 -100q0 -73 -51.5 -124.5t-124.5 -51.5zM368 -32z" />
    <glyph glyph-name="venus-mars" unicode="venus&#x2d;mars" horiz-adv-x="640" 
d="M176 160q-30 0 -56 15t-41 41t-15 56t15 56t41 41t56 15q10 0 19.5 -1.5t19 -5t17.5 -8.5t15.5 -11t14 -13.5t11.5 -16.5q15 -26 15 -56t-15 -56t-41 -41t-56 -15zM352 272q0 73 -51.5 124.5t-124.5 51.5t-124.5 -51.5t-51.5 -124.5q0 -64 41 -113t103 -60v-35h-32
q-13 0 -22.5 -9.5t-9.5 -22.5t9.5 -22.5t22.5 -9.5h32v-32q0 -13 9.5 -22.5t22.5 -9.5t22.5 9.5t9.5 22.5v32h32q13 0 22.5 9.5t9.5 22.5t-9.5 22.5t-22.5 9.5h-32v35q62 11 103 60t41 113zM272 87q52 -55 128 -55q73 0 124.5 51.5t51.5 124.5q0 55 -31 100l21 20l33 -33
q11 -11 26 -5t15 22v112q0 10 -7 17t-17 7h-112q-16 0 -22 -15t5 -26l33 -33l-20 -21q-45 31 -100 31q-23 0 -45 -6q17 -28 24 -60q10 2 21 2q47 0 79.5 -33t32.5 -79t-32.5 -79t-79.5 -33q-44 0 -76 30q-23 -23 -52 -39z" />
    <glyph glyph-name="mars-and-venus" unicode="mars&#x2d;and&#x2d;venus" 
d="M338 433q-6 -15 5 -26l39 -39l-22 -22q-45 38 -104 38q-66 0 -113 -47t-47 -113q0 -60 39 -105t97 -53v-2v0v-1v-1v0v-1v-1v0v-1v0v-1v-1v0v-1v-1v-1v-1v0v-1v0v-1v0v-1v0v-1v0v-1v0v-1v0v-1v0v-1v-1v0v-1v0v-1v0v-1v0v-1h-24q-10 0 -17 -7t-7 -17t7 -17t17 -7h24v0v-1v0
v-1v0v0v-1v0v-1v0v0v-1v0v0v-1v0v0v-1v0v0v-1v0v0v-1v0v0v-1v0v0v-1v0v0v-1v0v0v-1v0v0v-1v0v0v0v-1v0v0v-1v0v0v-1v0v0v-1v0v0v-1v0v0v-1v0v0v0v-1v0v0v0v-1v0v0v0v-1v0v0v0v-1v0v0v0v0v-1v0v0v0v0v0v-1v0v0v0v0v-1v0v0v0v0v0v-1v0v0v0v0v0v-1v0v0v0v0v0v0v0v-1v0v0v-1v0v0
v0v0v-1v0v0v0v0v0v0v0v0v0v0v0v0v0v0v0v0v0v0v0v0v0v0v0v0v0v0v0h24h24v0v0v0v0v0v0v0v0v0v0v0v0v0v0v0v0v0v0v0v0v0v0v0v0v0v0v0v1v0v0v0v0v1v0v0v0v0v1v0v0v0v0v1v0v0v0v0v1v0v0v0v0v1v0v0v0v0v0v1v0v0v0v0v1v0v0v0v0v1v0v0v0v0v1v0v0v0v0v1v0v0v0v0v1v0v0v0v1v0v0v1v0v0
v1v0v0v1v0v0v1v0v0v1v0v0v1v0v0v1v0v0v1v0v0v1v0v0v1v0v0v1v0v0v1v0v0v1v0v0v1v0v0v1v0v0v1v0v0v1v0v0v1v0v0v1v0h24q10 0 17 7t7 17t-7 17t-17 7h-24v1v0v1v0v1v0v1v0v1v0v1v0v1v0v1v0v1v0v1v0v1v0v1v0v1v1v0v1v1v0v1v1v0v1v1v0v1v1v0v1v1v1v1q58 8 97 53t39 105
q0 47 -25 85l25 25l39 -39q11 -11 26 -5t15 22v112q0 10 -7 17t-17 7h-112q-16 0 -22 -15zM448 400zM256 -40h-24q0 -10 7 -17t17 -7t17 7t7 17h-24zM352 224q0 -26 -13 -48t-35 -35q-48 -28 -96 0q-22 13 -35 35t-13 48t13 48t35 35q48 28 96 0q22 -13 35 -35t13 -48z" />
    <glyph glyph-name="mars-stroke" unicode="mars&#x2d;stroke" 
d="M376 448h112q10 0 17 -7t7 -17v-112q0 -16 -15 -22t-26 5l-33 33l-22 -22l25 -25q7 -7 7 -17t-7 -17t-17 -7t-17 7l-25 25l-29 -28q31 -45 31 -100q0 -73 -51.5 -124.5t-124.5 -51.5t-124.5 51.5t-51.5 124.5t51.5 124.5t124.5 51.5q55 0 100 -31l29 29l-26 25
q-7 7 -7 17t7 17t17 7t17 -7l25 -25l22 22l-33 33q-11 11 -5 26t22 15zM464 400zM96 144q0 -30 15 -56t41 -41t56 -15t56 15t41 41t15 56t-15 56t-41 41t-56 15t-56 -15t-41 -41t-15 -56z" />
    <glyph glyph-name="transgender" unicode="transgender&#x2d;alt" 
d="M112 448h-96q-7 0 -11.5 -4.5t-4.5 -11.5v-96q0 -11 10 -15t17 4l31 31l20 -20l-7 -7q-7 -7 -7 -17t7 -17t17 -7t17 7l7 7l15 -15q-31 -42 -31 -95q0 -60 39 -104.5t97 -53.5v-18h-16q-10 0 -17 -7t-7 -17t7 -17t17 -7h16v-8q0 -10 7 -17t17 -7t17 7t7 17v8h16q10 0 17 7
t7 17t-7 17t-17 7h-16v18q58 9 97 53.5t39 104.5q0 53 -31 95l69 69l31 -31q7 -8 17 -4t10 15v96q0 6 -4.5 11t-11.5 5h-96q-11 0 -15 -10t4 -17l31 -31l-69 -69q-42 31 -95 31t-95 -31l-15 15l7 7q7 7 7 17t-7 17t-17 7t-17 -7l-7 -7l-20 20l31 31q8 7 4 17t-15 10z
M352 192q0 -26 -13 -48t-35 -35q-48 -28 -96 0q-22 13 -35 35t-13 48t13 48t35 35q48 28 96 0q22 -13 35 -35t13 -48z" />
    <glyph glyph-name="mars-stroke-up" unicode="mars&#x2d;stroke&#x2d;up" horiz-adv-x="320" 
d="M149 443l-64 -64q-8 -7 -4 -17t15 -10h40v-24h-32q-10 0 -17 -7t-7 -17t7 -17t17 -7h32v-24v-1v-1q-58 -8 -97 -53t-39 -105q0 -66 47 -113t113 -47t113 47t47 113q0 60 -39 104.5t-97 53.5v2v24h32q10 0 17 7t7 17t-7 17t-17 7h-32v24h40q11 0 15 10t-4 17l-64 64
q-4 5 -11 5t-11 -5zM256 96q0 -26 -13 -48t-35 -35t-48 -13t-48 13t-35 35t-13 48t13 48t35 35t48 13t48 -13t35 -35t13 -48z" />
    <glyph glyph-name="mars-stroke-right" unicode="mars&#x2d;stroke&#x2d;right" horiz-adv-x="640" 
d="M208 80q-20 0 -38.5 6.5t-33.5 19.5t-25 30q-15 26 -15 56t15 56t41 41t56 15t56 -15t41 -41t15 -56t-15 -56t-41 -41t-56 -15zM382 168h34v-56q0 -10 7 -17t17 -7t17 7t7 17v56h32v-56q0 -16 15 -22t26 5l80 80q7 7 7 17t-7 17l-80 80q-11 11 -26 5t-15 -22v-56h-32v56
q0 10 -7 17t-17 7t-17 -7t-7 -17v-56h-34q-8 65 -58 108.5t-116 43.5q-73 0 -124.5 -51.5t-51.5 -124.5t51.5 -124.5t124.5 -51.5q66 0 116 43.5t58 108.5z" />
    <glyph glyph-name="neuter" unicode="neuter" horiz-adv-x="384" 
d="M80 272q0 -15 4 -29.5t11 -26.5t17.5 -23t23.5 -18q26 -15 56 -15t56 15t41 41t15 56t-15 56t-41 41t-56 15t-56 -15q-17 -10 -30 -25t-19.5 -33.5t-6.5 -38.5zM224 99v-131q0 -13 -9.5 -22.5t-22.5 -9.5t-22.5 9.5t-9.5 22.5v131q-62 11 -103 60t-41 113
q0 73 51.5 124.5t124.5 51.5t124.5 -51.5t51.5 -124.5q0 -64 -41 -113t-103 -60z" />
    <glyph glyph-name="futbol" unicode="futbol&#x2d;ball" 
d="M417 88q28 43 31 94l-61 38q-7 4 -9.5 11.5t0.5 15.5l27 66q-32 40 -80 58l-55 -46q-6 -5 -14 -5t-14 5l-55 46q-47 -18 -80 -58l27 -66q3 -8 0.5 -15.5t-9.5 -11.5l-61 -38q3 -51 31 -94l71 5q9 0 15 -4q6 -5 8 -13l18 -70q24 -6 49 -6t49 6l18 70q2 8 8 12q7 5 15 5z
M256 -64q-69 0 -128 34.5t-93.5 93.5t-34.5 128t34.5 128t93.5 93.5t128 34.5t128 -34.5t93.5 -93.5t34.5 -128t-34.5 -128t-93.5 -93.5t-128 -34.5zM270 262l48 -35q14 -10 9 -27l-19 -56q-5 -17 -22 -17h-60q-17 0 -22 17l-19 56q-5 17 9 27l48 35q14 10 28 0zM270 262z
" />
    <glyph glyph-name="baseball" unicode="baseball&#x2d;ball" 
d="M63 225q6 0 11 -4t5.5 -11t-3.5 -12t-11 -5q-8 -1 -17 -1q-25 0 -48 6v-6q0 -106 75 -181t181 -75h3h3q-6 23 -6 48q0 9 1 17q0 7 5 11.5t12 3.5t11 -6t4 -11q-1 -8 -1 -15q0 -23 6 -45q83 12 143 72t72 143q-21 6 -45 6q-7 0 -15 -1q-6 0 -11 4t-6 11q0 4 1.5 8t5 6.5
t8.5 2.5q8 1 17 1q24 0 48 -6v6q0 106 -75 181t-181 75h-3h-3q6 -23 6 -48q0 -9 -1 -17q0 -7 -5 -11.5t-12 -3.5q-4 0 -7.5 2.5t-5.5 6.5t-2 8q1 8 1 15q0 23 -6 45q-83 -12 -143 -72t-72 -143q22 -6 45 -6q8 0 15 1zM121 240q60 27 87 87q3 6 9 8t12 -0.5t8.5 -9
t-0.5 -12.5q-32 -70 -102 -102q-6 -3 -12.5 -0.5t-9 8.5t-0.5 12t8 9zM398.5 165q2.5 -6 0.5 -12t-8 -9q-60 -27 -87 -87q-3 -6 -9 -8t-12 0.5t-8.5 9t0.5 12.5q32 70 102 102q6 3 12.5 0.5t9 -8.5zM398 165z" />
    <glyph glyph-name="cloud-sun" unicode="cloud&#x2d;sun" horiz-adv-x="640" 
d="M294 446.5q-8 3.5 -15 -1.5l-71 -50l-71 50q-7 5 -15 1.5t-10 -11.5l-14 -85l-85 -14q-8 -2 -11.5 -10t1.5 -15l49 -71l-49 -71q-5 -7 -1.5 -15t11.5 -10l85 -14l14 -84q2 -9 10 -12.5t15 1.5l24 17q5 31 24 56t46 39q-11 -3 -23 -3q-40 0 -68 28t-28 68t28 68t68 28
t68 -28t28 -68v-1q30 17 64 17h7l38 55q5 7 1.5 15t-11.5 10l-85 14l-14 85q-2 8 -10 11.5zM144 240q0 -37 32 -55.5t64 0t32 55.5t-32 55q-15 9 -32 9t-32 -9q-32 -18 -32 -55zM640 16q0 19 -8.5 36t-23.5 28t-34 15q2 8 2 17q0 33 -23.5 56.5t-56.5 23.5q-25 0 -46 -14
q-13 21 -34.5 33.5t-47.5 12.5q-40 0 -68 -28t-28 -68v-1q-34 -6 -57 -32.5t-23 -62.5q0 -40 28 -68t68 -28h272q33 0 56.5 23.5t23.5 56.5zM640 16z" />
    <glyph glyph-name="cloud-rain" unicode="cloud&#x2d;rain" 
d="M96 128h320q40 0 68 28t28 68t-28 68t-68 28h-2q2 8 2 16q0 33 -23.5 56.5t-56.5 23.5q-37 0 -61 -28q-14 27 -40.5 43.5t-58.5 16.5q-46 0 -79 -33t-33 -79q0 -10 2 -21q-29 -9 -47.5 -34t-18.5 -57q0 -40 28 -68t68 -28zM89 76l-35 -65q-6 -11 -6 -24v-3q0 -20 14 -34
t34 -14t34 14t14 34v3q0 13 -6 24l-35 65q-2 4 -7 4t-7 -4zM249 76l-35 -65q-6 -11 -6 -24v-3q0 -20 14 -34t34 -14t34 14t14 34v3q0 13 -6 24l-35 65q-2 4 -7 4t-7 -4zM374 11q-6 -11 -6 -24v-3q0 -20 14 -34t34 -14t34 14t14 34v3q0 13 -6 24l-35 65q-2 4 -7 4t-7 -4z
M374 11z" />
    <glyph glyph-name="truck" unicode="truck" horiz-adv-x="640" 
d="M48 448h320q20 0 34 -14t14 -34v-48h51q26 0 45 -19l77 -77q19 -19 19 -45v-19v-32v-64q13 0 22.5 -9.5t9.5 -22.5t-9.5 -22.5t-22.5 -9.5h-32q0 -40 -28 -68t-68 -28t-68 28t-28 68h-128q0 -40 -28 -68t-68 -28t-68 28t-28 68h-16q-20 0 -34 14t-14 34v320q0 20 14 34
t34 14zM416 288v-96h128v19l-77 77h-51zM112 32q0 -28 24 -41.5t48 0t24 41.5t-24 41.5t-48 0t-24 -41.5zM480 80q-28 0 -42 -24q-6 -11 -6 -24t6 -24q14 -24 42 -24t42 24q6 11 6 24t-6 24q-14 24 -42 24z" />
    <glyph glyph-name="torii-gate" unicode="torii&#x2d;gate" 
d="M0 368v67q0 5 4 9t9 4q3 0 5 -1l49 -20q29 -11 60 -11h258q31 0 60 11l49 20q2 1 5 1q5 0 9 -4t4 -9v-67q0 -20 -14 -34t-34 -14h-16v-64h-64v64h-96v-64h-64v64h-96v-64h-64v64h-16q-20 0 -34 14t-14 34zM64 160h-32q-13 0 -22.5 9.5t-9.5 22.5t9.5 22.5t22.5 9.5h448
q13 0 22.5 -9.5t9.5 -22.5t-9.5 -22.5t-22.5 -9.5h-32v-192q0 -13 -9.5 -22.5t-22.5 -9.5t-22.5 9.5t-9.5 22.5v192h-256v-192q0 -13 -9.5 -22.5t-22.5 -9.5t-22.5 9.5t-9.5 22.5v192z" />
    <glyph glyph-name="church" unicode="church" horiz-adv-x="640" 
d="M344 424v-24h32q10 0 17 -7t7 -17t-7 -17t-17 -7h-32v-46l113 -68q23 -14 23 -41v-261h-96v96q0 26 -19 45t-45 19t-45 -19t-19 -45v-96h-96v261q0 27 23 41l113 68v46h-32q-10 0 -17 7t-7 17t7 17t17 7h32v24q0 10 7 17t17 7t17 -7t7 -17zM25 118l103 56v-238h-80
q-20 0 -34 14t-14 34v92q0 28 25 42zM592 -64h-80v238l103 -56q25 -14 25 -42v-92q0 -20 -14 -34t-34 -14z" />
    <glyph glyph-name="person-skiing" unicode="person&#x2d;skiing" 
d="M381 400q0 -28 24 -41.5t48 0t24 41.5t-24 41.5t-48 0t-24 -41.5zM2.5 179q-4.5 -9 -1.5 -18.5t12 -13.5l383 -199q44 -23 88 -1l15 8q9 4 12 13.5t-1.5 18.5t-14 12t-18.5 -1l-15 -8q-22 -11 -44 0l-128 67l50 74q9 15 7.5 32t-13.5 29l-40 39l-109 52q-3 -30 19 -52
l75 -75l-46 -69l-198 102q-9 5 -18.5 2t-14 -12zM119 382q-6 3 -12.5 1t-9 -8t-0.5 -12.5t8 -8.5l18 -9l-9 -18q-3 -6 -1 -12t8 -9t12 -1t9 8l10 18l153 -73l7 -3l7 3l27 12l6 -18q6 -19 24 -27l58 -29q12 -6 24.5 -2t18.5 16t1.5 24.5t-16.5 18.5l-52 26l-17 51
q-9 26 -34 38t-50 1l-84 -33q-3 -1 -4 -2l-55 26l8 17q3 6 1 12t-8 9t-12 1t-9 -8l-9 -17zM119 382z" />
    <glyph glyph-name="campground" unicode="campground" horiz-adv-x="576" 
d="M377 396l-48 -60l235 -293q12 -16 12 -35v-24q0 -20 -14 -34t-34 -14h-240h-240q-20 0 -34 14t-14 34v24q0 19 12 35l235 293l-48 60q-8 10 -6.5 23.5t11.5 21.5t23.5 6.5t21.5 -11.5l39 -49l39 49q8 10 21.5 11.5t23.5 -6.5t11.5 -21.5t-6.5 -23.5zM288 0h120l-120 156
l-119 -156h119z" />
    <glyph glyph-name="gas-pump" unicode="gas&#x2d;pump" 
d="M32 384v-384q-13 0 -22.5 -9.5t-9.5 -22.5t9.5 -22.5t22.5 -9.5h288q13 0 22.5 9.5t9.5 22.5t-9.5 22.5t-22.5 9.5v144h8q17 0 28.5 -11.5t11.5 -28.5v-32q0 -30 21 -51t51 -21t51 21t21 51v152v32v24v13q0 27 -19 46l-77 77q-7 7 -16 7t-16 -7t-7 -16t7 -16l32 -32v-64
q0 -22 13.5 -39.5t34.5 -22.5v-154q0 -10 -7 -17t-17 -7t-17 7t-7 17v32q0 36 -26 62t-62 26h-8v192q0 26 -19 45t-45 19h-160q-26 0 -45 -19t-19 -45zM96 368q0 7 4.5 11.5t11.5 4.5h128q7 0 11.5 -4.5t4.5 -11.5v-96q0 -7 -4.5 -11.5t-11.5 -4.5h-128q-7 0 -11.5 4.5
t-4.5 11.5v96z" />
    <glyph glyph-name="scissors" unicode="cut" 
d="M256 256l141 141q21 21 51 21t51 -21q6 -6 6 -13t-6 -13l-283 -283q8 -19 8 -40q0 -46 -33 -79t-79 -33t-79 33t-33 79t33 79t79 33q21 0 40 -8l40 40l-40 39q-19 -7 -40 -7q-46 0 -79 33t-33 79t33 79t79 33t79 -33t33 -79q0 -21 -8 -40zM279 105l64 64l156 -156
q6 -6 6 -13t-6 -13q-21 -21 -51 -21t-51 21zM64 336q0 -28 24 -42q11 -6 24 -6t24 6q24 14 24 42t-24 42q-6 3 -12 4.5t-12 1.5t-12 -1.5t-12 -4.5q-24 -14 -24 -42zM112 96q-28 0 -41.5 -24t0 -48t41.5 -24t42 24q6 11 6 24t-6 24q-14 24 -42 24z" />
    <glyph glyph-name="envelope" unicode="envelope" 
d="M48 384h416q20 0 34 -14t14 -34q0 -24 -19 -38l-218 -164q-19 -14 -38 0l-218 164q-19 14 -19 38q0 20 14 34t34 14zM0 272l218 -163q17 -13 38 -13t38 13l218 163v-208q0 -26 -19 -45t-45 -19h-384q-26 0 -45 19t-19 45v208z" />
    <glyph glyph-name="hand-fist" unicode="fist&#x2d;raised" horiz-adv-x="448" 
d="M192 448q-13 0 -22.5 -9.5t-9.5 -22.5v-112h64v112q0 13 -9.5 22.5t-22.5 9.5zM64 384v-80h64v80q0 13 -9.5 22.5t-22.5 9.5t-22.5 -9.5t-9.5 -22.5zM256 384v-96q0 -13 9.5 -22.5t22.5 -9.5t22.5 9.5t9.5 22.5v96q0 13 -9.5 22.5t-22.5 9.5t-22.5 -9.5t-9.5 -22.5z
M352 320v-64q0 -13 9.5 -22.5t22.5 -9.5t22.5 9.5t9.5 22.5v64q0 13 -9.5 22.5t-22.5 9.5t-22.5 -9.5t-9.5 -22.5zM256 232q0 -15 -5.5 -28t-15.5 -23t-23 -15.5t-28 -5.5h-56q-7 0 -11.5 4.5t-4.5 11.5t4.5 11.5t11.5 4.5h56q17 0 28.5 11.5t11.5 28.5t-11.5 28.5
t-28.5 11.5h-88q-26 0 -45 -19t-19 -45v-27q0 -53 38 -91l11 -11q21 -20 47 -33v-78q0 -13 9.5 -22.5t22.5 -9.5h160q13 0 22.5 9.5t9.5 22.5v96q30 22 47 55.5t17 72.5v9q-15 -9 -32 -9q-21 0 -37.5 12t-22.5 31q-17 -11 -36 -11q-17 0 -32 9v-1z" />
    <glyph glyph-name="hand" unicode="hand&#x2d;paper" 
d="M288 416v-208q0 -7 4.5 -11.5t11.5 -4.5t11.5 4.5t4.5 11.5v176q0 13 9.5 22.5t22.5 9.5t22.5 -9.5t9.5 -22.5v-176q0 -7 4.5 -11.5t11.5 -4.5t11.5 4.5t4.5 11.5v112q0 13 9.5 22.5t22.5 9.5t22.5 -9.5t9.5 -22.5v-208q0 -73 -51.5 -124.5t-124.5 -51.5h-19
q-93 0 -160 64l-113 107q-12 11 -12 28t11 29t28 12t29 -11l60 -58v5v272q0 13 9.5 22.5t22.5 9.5t22.5 -9.5t9.5 -22.5v-176q0 -7 4.5 -11.5t11.5 -4.5t11.5 4.5t4.5 11.5v208q0 13 9.5 22.5t22.5 9.5t22.5 -9.5t9.5 -22.5z" />
    <glyph glyph-name="hand-peace" unicode="hand&#x2d;peace" 
d="M224 448q-13 0 -22.5 -9.5t-9.5 -22.5v-208h64v208q0 13 -9.5 22.5t-22.5 9.5zM320 288q-13 0 -22.5 -9.5t-9.5 -22.5v-64q0 -13 9.5 -22.5t22.5 -9.5t22.5 9.5t9.5 22.5v64q0 13 -9.5 22.5t-22.5 9.5zM384 224v-64q0 -13 9.5 -22.5t22.5 -9.5t22.5 9.5t9.5 22.5v64
q0 13 -9.5 22.5t-22.5 9.5t-22.5 -9.5t-9.5 -22.5zM93 397q-5 12 -17.5 17t-24.5 -0.5t-17 -18t1 -24.5l71 -163h70zM120 175q-24 -2 -40 -20.5t-16 -42.5v-27q0 -53 38 -91l11 -11q47 -47 113 -47h62q66 0 113 47t47 113v9q-15 -9 -32 -9q-21 0 -37.5 12t-22.5 31
q-17 -11 -36 -11q-17 0 -32 9v-1q0 -30 -21 -51t-51 -21h-56q-7 0 -11.5 4.5t-4.5 11.5t4.5 11.5t11.5 4.5h56q17 0 28.5 11.5t11.5 28.5t-11.5 28.5t-28.5 11.5h-26h-70v-1z" />
    <glyph glyph-name="pencil" unicode="pencil&#x2d;alt" 
d="M410 217l-22 -23l-200 -199q-15 -16 -37 -22l-120 -35q-14 -4 -24 6t-6 23l35 121q7 21 23 37l199 199l22 23l12 11l34 -34l62 -62l34 -34zM160 49h-32q-7 0 -11.5 4.5t-4.5 11.5v32l-23 -10q-5 -6 -7 -13l-23 -78l79 23q7 2 13 7zM363 429q19 19 45.5 19t44.5 -19
l40 -39q18 -19 18 -45.5t-18 -45.5l-15 -14l-22 -23l-12 -11l-34 34l-62 62l-34 34l12 11l22 23zM315 261q5 5 5 11.5t-4.5 11.5t-11.5 5t-11 -5l-144 -144q-5 -5 -5 -11.5t4.5 -11t11.5 -4.5t11 4zM315 261z" />
    <glyph glyph-name="pen-nib" unicode="pen&#x2d;nib" 
d="M368 430q17 16 40 16t40 -16l46 -46q16 -17 16 -40t-16 -40l-56 -55l-125 125zM288 353l129 -129l-2 -9l-44 -144q-9 -32 -41 -43l-264 -88q-18 -7 -32 7l153 154q10 -5 21 -5q20 0 34 14t14 34t-14 34t-34 14t-34 -14t-14 -34q0 -11 5 -21l-154 -153q-13 14 -7 32
l88 264q11 32 43 41l144 44z" />
    <glyph glyph-name="pen-fancy" unicode="pen&#x2d;fancy" 
d="M374 421l-181 -207l10 -11l64 -64l11 -10l207 180q27 24 27 60q0 33 -23 56t-56 23q-36 0 -59 -27zM170 191l-83 -19q-28 -7 -36 -34l-49 -178l95 96q-1 4 -1 8q0 13 9.5 22.5t22.5 9.5t22.5 -9.5t9.5 -22.5t-9.5 -22.5t-22.5 -9.5q-4 0 -8 1l-96 -95l178 50q28 7 34 35
l19 83l-10 11l-64 64zM170 191z" />
    <glyph glyph-name="check" unicode="check" horiz-adv-x="448" 
d="M438.5 342.5q-9.5 9.5 -22.5 9.5t-23 -9l-233 -234l-105 106q-10 9 -23 9t-22.5 -9.5t-9.5 -22.5t9 -23l128 -128q10 -9 23 -9t23 9l256 256q9 10 9 23t-9.5 22.5zM439 343z" />
    <glyph glyph-name="cross" unicode="cross" horiz-adv-x="384" 
d="M176 448h32q20 0 34 -14t14 -34v-80h80q20 0 34 -14t14 -34v-32q0 -20 -14 -34t-34 -14h-80v-208q0 -20 -14 -34t-34 -14h-32q-20 0 -34 14t-14 34v208h-80q-20 0 -34 14t-14 34v32q0 20 14 34t34 14h80v80q0 20 14 34t34 14z" />
    <glyph glyph-name="star-of-david" unicode="star&#x2d;of&#x2d;david" 
d="M404 138l21 -34h-42zM371 192l-54 -88h-122l-54 88l54 88h122zM437 192l54 87q5 9 5 20q0 15 -11 26t-26 11h-110l-56 91q-13 21 -37 21t-36 -21l-57 -91h-110q-15 0 -26 -11t-11 -26q0 -11 6 -20l53 -87l-53 -87q-6 -9 -6 -20q0 -15 11 -26t26 -11h110l56 -92
q13 -20 37 -20t37 20l56 92h110q10 0 18.5 5t13.5 13.5t5 18.5q0 11 -5 20zM383 280h42l-21 -35zM283 336h-54l27 44zM129 280l-21 -35l-21 35h42zM108 138l21 -34h-42zM229 48h54l-27 -44z" />
    <glyph glyph-name="snowflake" unicode="snowflake" horiz-adv-x="448" 
d="M224 448q-13 0 -22.5 -9.5t-9.5 -22.5v-30l-15 15q-7 7 -17 7t-17 -7t-7 -17t7 -17l49 -49v-70l-61 35l-18 67q-3 9 -11.5 14t-18 2.5t-14.5 -11t-2 -18.5l5 -19l-24 14q-11 6 -24 3t-19.5 -14.5t-3.5 -24.5t15 -20l25 -14l-21 -6q-10 -3 -15 -11.5t-2.5 -18t11 -14.5
t18.5 -3l68 19l61 -36l-61 -35l-68 18q-10 2 -18.5 -3t-11 -14.5t2.5 -18t14 -11.5l22 -5l-25 -15q-12 -7 -15 -20t3.5 -24.5t19.5 -14.5t24 3l24 14l-5 -19q-3 -10 2 -18.5t14.5 -11t18.5 2.5t11 14l18 66l61 36v-70l-49 -49q-7 -7 -7 -17t7 -17t17 -7t17 7l15 15v-30
q0 -13 9.5 -22.5t22.5 -9.5t22.5 9.5t9.5 22.5v30l15 -15q7 -7 17 -7t17 7t7 17t-7 17l-49 49v70l61 -36l18 -66q3 -9 11.5 -14t18 -2.5t14.5 11t2 18.5l-5 19l24 -14q11 -6 24 -3t19.5 14.5t3.5 24.5t-15 20l-25 14l21 6q10 3 15 11.5t2.5 18t-11 14.5t-18.5 3l-68 -19
l-61 36l61 35l68 -18q10 -2 18.5 3t11 14.5t-2.5 18t-15 11.5l-21 6l25 14q12 7 15 20t-3.5 24.5t-19.5 14.5t-24 -3l-24 -14l5 19q3 10 -2 18.5t-15 11.5q-6 1 -12 -0.5t-10.5 -6t-6.5 -10.5l-18 -66l-61 -36v70l49 49q7 7 7 17t-7 17t-17 7t-17 -7l-15 -15v30
q0 13 -9.5 22.5t-22.5 9.5zM224 448z" />
    <glyph glyph-name="square-xmark" unicode="square&#x2d;xmark" horiz-adv-x="448" 
d="M64 416h320q26 0 45 -19t19 -45v-320q0 -26 -19 -45t-45 -19h-320q-26 0 -45 19t-19 45v320q0 26 19 45t45 19zM143 273q-7 -7 -7 -17t7 -17l47 -47l-47 -47q-7 -7 -7 -17t7 -17t17 -7t17 7l47 47l47 -47q7 -7 17 -7t17 7t7 17t-7 17l-47 47l47 47q7 7 7 17t-7 17t-17 7
t-17 -7l-47 -47l-47 47q-7 7 -17 7t-17 -7z" />
    <glyph glyph-name="turn-up" unicode="level&#x2d;up&#x2d;alt" horiz-adv-x="384" 
d="M350 270.5q-6 -14.5 -22 -14.5h-88v-192q0 -53 -37.5 -90.5t-90.5 -37.5h-80q-13 0 -22.5 9.5t-9.5 22.5v32q0 13 9.5 22.5t22.5 9.5h80q13 0 22.5 9.5t9.5 22.5v192h-88q-16 0 -22 14.5t5 25.5l136 144q7 8 17 8t17 -8l136 -144q11 -11 5 -25.5z" />
    <glyph glyph-name="turn-down" unicode="level&#x2d;down&#x2d;alt" horiz-adv-x="384" 
d="M350 113.5q-6 14.5 -22 14.5h-88v192q0 53 -37.5 90.5t-90.5 37.5h-80q-13 0 -22.5 -9.5t-9.5 -22.5v-32q0 -13 9.5 -22.5t22.5 -9.5h80q13 0 22.5 -9.5t9.5 -22.5v-192h-88q-16 0 -22 -14.5t5 -25.5l136 -144q7 -8 17 -8t17 8l136 144q11 11 5 25.5z" />
    <glyph glyph-name="square-full" unicode="square&#x2d;full" 
d="M0 448v-512h512v512h-512z" />
    <glyph glyph-name="star" unicode="star" horiz-adv-x="576" 
d="M317 430l64 -132l144 -22q19 -2 25.5 -21t-7.5 -33l-104 -103l24 -146q3 -19 -13 -31t-33 -2l-129 68l-128 -68q-18 -10 -34 2t-13 31l25 146l-104 103q-14 14 -8 33t25 21l144 22l64 132q9 18 29 18t29 -18z" />
    <glyph glyph-name="faucet" unicode="faucet" 
d="M192 352q0 13 9.5 22.5t22.5 9.5t22.5 -9.5t9.5 -22.5v-12l96 12q13 0 22.5 -9.5t9.5 -22.5t-9.5 -22.5t-22.5 -9.5l-96 12l-31 4h-1h-1l-31 -4l-96 -12q-13 0 -22.5 9.5t-9.5 22.5t9.5 22.5t22.5 9.5l96 -12v12zM32 192h96l23 23q9 9 22 9h19v44l32 4l32 -4v-44h19
q13 0 22 -9l23 -23h32q66 0 113 -47t47 -113q0 -13 -9.5 -22.5t-22.5 -9.5h-64q-13 0 -22.5 9.5t-9.5 22.5t-9.5 22.5t-22.5 9.5h-36q-34 -48 -92 -48t-92 48h-100q-13 0 -22.5 9.5t-9.5 22.5v64q0 13 9.5 22.5t22.5 9.5z" />
    <glyph glyph-name="faucet-drip" unicode="faucet&#x2d;drip" 
d="M224 448q-13 0 -22.5 -9.5t-9.5 -22.5v-12l-96 12q-13 0 -22.5 -9.5t-9.5 -22.5t9.5 -22.5t22.5 -9.5l96 12l31 4h1h1l31 -4l96 -12q13 0 22.5 9.5t9.5 22.5t-9.5 22.5t-22.5 9.5l-96 -12v12q0 13 -9.5 22.5t-22.5 9.5zM0 224v-64q0 -13 9.5 -22.5t22.5 -9.5h100
q34 -48 92 -48t92 48h36q13 0 22.5 -9.5t9.5 -22.5t9.5 -22.5t22.5 -9.5h64q13 0 22.5 9.5t9.5 22.5q0 66 -47 113t-113 47h-32l-23 23q-9 9 -22 9h-19v44l-32 4l-32 -4v-44h-19q-13 0 -22 -9l-23 -23h-96q-13 0 -22.5 -9.5t-9.5 -22.5zM437 25l-18 -43q-3 -6 -3 -13v-1
q0 -13 9.5 -22.5t22.5 -9.5t22.5 9.5t9.5 22.5v1q0 7 -3 13l-18 43q-3 7 -11 7t-11 -7zM437 25z" />
    <glyph glyph-name="house-chimney-window" unicode="house&#x2d;chimney&#x2d;window" horiz-adv-x="576" 
d="M576 192v1q1 13 -11 24l-53 46v121q0 13 -9.5 22.5t-22.5 9.5h-32q-13 0 -22.5 -9.5t-9.5 -22.5v-37l-107 94q-8 7 -21 7q-14 0 -22 -8l-256 -224q-10 -10 -10 -24q0 -13 9 -22.5t23 -9.5h32v-160q0 -27 19 -45.5t45 -18.5h320q27 0 46 19t18 45v160h32q13 0 22.5 9.5
t9.5 22.5zM248 256h80q10 0 17 -7t7 -17v-80q0 -10 -7 -17t-17 -7h-80q-10 0 -17 7t-7 17v80q0 10 7 17t17 7z" />
    <glyph glyph-name="house-signal" unicode="house&#x2d;signal" horiz-adv-x="576" 
d="M358 440l208 -193q16 -14 8 -34.5t-30 -20.5h-32v-112q0 -20 -14 -34t-34 -14h-186q-18 65 -66.5 114t-113.5 68q-7 19 8 34l208 192q9 8 21.5 8t22.5 -8zM288 240v-64q0 -7 4.5 -11.5t11.5 -4.5h64q7 0 11.5 4.5t4.5 11.5v64q0 7 -4.5 11.5t-11.5 4.5h-64
q-7 0 -11.5 -4.5t-4.5 -11.5zM24 192q96 0 164 -68t68 -164q0 -10 -7 -17t-17 -7t-17 7t-7 17q0 76 -54 130t-130 54q-10 0 -17 7t-7 17t7 17t17 7zM32 -64q-13 0 -22.5 9.5t-9.5 22.5t9.5 22.5t22.5 9.5t22.5 -9.5t9.5 -22.5t-9.5 -22.5t-22.5 -9.5zM0 72q0 10 7 17t17 7
q56 0 96 -40t40 -96q0 -10 -7 -17t-17 -7t-17 7t-7 17q0 36 -26 62t-62 26q-10 0 -17 7t-7 17z" />
    <glyph glyph-name="temperature-arrow-down" unicode="temperature&#x2d;arrow&#x2d;down" horiz-adv-x="576" 
d="M128 336v-165q0 -22 -15 -42q-17 -22 -17 -49q0 -33 23.5 -56.5t56.5 -23.5t56.5 23.5t23.5 56.5q0 27 -17 49q-15 20 -15 43v164q0 20 -14 34t-34 14t-34 -14t-14 -34zM176 448q30 0 56 -15t41 -41t15 -56v-165q1 -1 2 -3q30 -39 30 -88q0 -60 -42 -102t-102 -42
t-102 42t-42 102q0 49 30 88q1 2 2 3v1v164q0 46 33 79t79 33zM176 32q-20 0 -34 14t-14 34q0 15 9 27.5t23 17.5v51q0 7 4.5 11.5t11.5 4.5t11.5 -4.5t4.5 -11.5v-51q14 -5 23 -17.5t9 -27.5q0 -20 -14 -34t-34 -14zM512 96q21 0 29.5 -20t-7.5 -35l-64 -64q-9 -9 -22 -9
t-23 9l-64 64q-15 16 -6.5 35.5t29.5 19.5h32v288q0 13 9.5 22.5t22.5 9.5t22.5 -9.5t9.5 -22.5v-288h32zM512 96z" />
    <glyph glyph-name="temperature-arrow-up" unicode="temperature&#x2d;arrow&#x2d;up" horiz-adv-x="576" 
d="M128 336v-165q0 -22 -15 -42q-17 -22 -17 -49q0 -33 23.5 -56.5t56.5 -23.5t56.5 23.5t23.5 56.5q0 27 -17 49q-15 20 -15 43v164q0 20 -14 34t-34 14t-34 -14t-14 -34zM176 448q30 0 56 -15t41 -41t15 -56v-165q1 -1 2 -3q30 -39 30 -88q0 -60 -42 -102t-102 -42
t-102 42t-42 102q0 49 30 88q1 2 2 3v1v164q0 46 33 79t79 33zM176 32q-20 0 -34 14t-14 34q0 15 9 27.5t23 17.5v211q0 7 4.5 11.5t11.5 4.5t11.5 -4.5t4.5 -11.5v-211q14 -5 23 -17.5t9 -27.5q0 -20 -14 -34t-34 -14zM480 288v-288q0 -13 -9.5 -22.5t-22.5 -9.5t-22.5 9.5
t-9.5 22.5v288h-32q-21 0 -29.5 20t6.5 35l64 64q10 9 23 9t23 -9l64 -64q15 -16 6.5 -35.5t-29.5 -19.5h-32zM480 288z" />
    <glyph glyph-name="trailer" unicode="trailer" horiz-adv-x="640" 
d="M48 416h448q20 0 34 -14t14 -34v-240h64q13 0 22.5 -9.5t9.5 -22.5t-9.5 -22.5t-22.5 -9.5h-112h-8h-201q-6 41 -37.5 68.5t-73.5 27.5t-73.5 -27.5t-37.5 -68.5h-17q-20 0 -34 14t-14 34v256q0 20 14 34t34 14zM80 352q-7 0 -11.5 -4.5t-4.5 -11.5v-152q14 12 32 21v131
q0 7 -4.5 11.5t-11.5 4.5zM176 224q9 0 16 -1v113q0 7 -4.5 11.5t-11.5 4.5t-11.5 -4.5t-4.5 -11.5v-113q7 1 16 1zM256 205q17 -9 32 -21v152q0 7 -4.5 11.5t-11.5 4.5t-11.5 -4.5t-4.5 -11.5v-131zM368 352q-7 0 -11.5 -4.5t-4.5 -11.5v-192q0 -7 4.5 -11.5t11.5 -4.5
t11.5 4.5t4.5 11.5v192q0 7 -4.5 11.5t-11.5 4.5zM480 336q0 7 -4.5 11.5t-11.5 4.5t-11.5 -4.5t-4.5 -11.5v-192q0 -7 4.5 -11.5t11.5 -4.5t11.5 4.5t4.5 11.5v192zM176 -32q-46 0 -69 40q-11 19 -11 40t11 40q23 40 69 40t69 -40q11 -19 11 -40t-11 -40q-23 -40 -69 -40z
M176 80q-13 0 -22.5 -9.5t-9.5 -22.5t9.5 -22.5t22.5 -9.5t22.5 9.5t9.5 22.5t-9.5 22.5t-22.5 9.5z" />
    <glyph glyph-name="bacteria" unicode="bacteria" horiz-adv-x="640" 
d="M305 447q7 -2 10.5 -8.5t1.5 -13.5l-4 -16q21 -11 32 -32l16 4q7 2 13.5 -1.5t9 -10.5t-1.5 -13.5t-11 -8.5l-15 -4q2 -25 -10 -47l9 -9q5 -5 5 -12.5t-5.5 -13t-12.5 -5.5t-13 6l-7 7q-14 -11 -31 -15q-7 -1 -12 -3l2 -8q2 -7 -1.5 -13.5t-10.5 -8.5t-13.5 1.5
t-8.5 10.5l-2 5q-24 -14 -36 -34l8 -3q7 -3 10 -10t0 -14t-10 -9.5t-14 0.5l-7 3q-2 -25 -16 -45l7 -7q5 -6 5 -13t-5.5 -12.5t-12.5 -5.5t-13 5l-9 9q-20 -11 -43 -10h-3l-5 -15q-2 -7 -8.5 -10.5t-13.5 -1.5t-10.5 8.5t-1.5 13.5l4 16q-21 11 -32 32l-16 -4
q-7 -2 -13.5 1.5t-8.5 10.5t1.5 13.5t10.5 8.5l15 5v9l29 -1l-29 1v0v1v1v1v2q1 6 1 7l4 24l1 2l-11 4q-6 3 -9 10t-0.5 14t9.5 9.5t14 0.5l8 -4q7 18 16 33q3 6 5 9l-11 9q-6 5 -7 12t4 13t12 7t13 -4l10 -8q17 20 36 35l-6 9q-4 6 -2.5 13.5t7.5 11.5t13.5 2.5t11.5 -7.5
l5 -8q22 13 46 22l-5 11q-3 7 0 14t10 9.5t14 0t10 -9.5l5 -13q10 3 21 6q13 3 25 2l5 15q2 7 8.5 10.5t13.5 1.5zM112 176q-9 0 -18.5 0.5t-17 0.5t-12.5 1zM128 256q-13 0 -22.5 -9.5t-9.5 -22.5t9.5 -22.5t22.5 -9.5t22.5 9.5t9.5 22.5t-9.5 22.5t-22.5 9.5zM192 304
q0 -7 4.5 -11.5t11.5 -4.5t11.5 4.5t4.5 11.5t-4.5 11.5t-11.5 4.5t-11.5 -4.5t-4.5 -11.5zM323 -41l4 15q-21 12 -33 33l-15 -5q-7 -2 -13.5 2t-8.5 11t1.5 13.5t10.5 8.5l15 4q-2 25 10 47l-9 9q-5 5 -5 12.5t5.5 13t13 5.5t12.5 -6l7 -7q14 11 31 15q7 1 12 3l-2 8
q-2 7 1.5 13.5t10.5 8.5t13.5 -1.5t8.5 -10.5l2 -5q24 14 37 34l-9 3q-7 3 -9.5 10t0 14t9.5 9.5t14 -0.5l7 -3q2 25 16 45l-7 7q-5 6 -5 13t5.5 12.5t13 5.5t12.5 -5l9 -9q20 11 43 10h3l5 15q2 7 8.5 10.5t13.5 1.5t10.5 -8.5t1.5 -13.5l-4 -16q21 -11 32 -32l16 4
q7 2 13.5 -1.5t8.5 -10.5t-1.5 -13.5t-10.5 -8.5l-15 -5v-9l-29 1l29 -1v0v-1v-1v-1v-2q-1 -6 -1 -7l-4 -24l-1 -2l11 -4q3 -2 5.5 -4.5t4 -5.5t1.5 -6.5t-1.5 -7t-4 -6t-5.5 -4t-6.5 -1.5t-7.5 1l-8 4q-7 -18 -16 -33q-3 -6 -5 -9l11 -9q6 -5 7 -12t-4 -13t-12 -7t-13 4
l-10 8q-17 -20 -36 -35l6 -9q4 -6 2.5 -13.5t-7.5 -11.5t-13.5 -2.5t-11.5 7.5l-6 8q-21 -13 -45 -22l4 -11q3 -7 0.5 -14t-9.5 -9.5t-14 0t-10 9.5l-5 13q-10 -3 -21 -6q-13 -3 -25 -2l-5 -15q-2 -7 -8.5 -10.5t-13.5 -1.5t-10.5 8.5t-1.5 13.5zM576 206v1l-48 1
q11 0 26.5 -0.5t21.5 -1.5zM448 64q0 13 -9.5 22.5t-22.5 9.5t-22.5 -9.5t-9.5 -22.5t9.5 -22.5t22.5 -9.5t22.5 9.5t9.5 22.5z" />
    <glyph glyph-name="bacterium" unicode="bacterium" 
d="M423 417l-4 -13q32 -17 49 -49l13 4q10 3 18.5 -2t11.5 -15q2 -4 1 -9t-3 -9t-6 -7t-8 -4l-15 -4q1 -36 -18 -65l11 -11q7 -7 7 -17t-7 -17t-17 -7t-17 7l-11 11q-16 -11 -35 -15l-22 -6l4 -15q3 -9 -2 -18t-15 -11q-4 -2 -9 -1t-9 3t-7 6t-4 8l-2 8q-31 -19 -49 -46
l11 -5q10 -4 13.5 -13t-0.5 -18.5t-13 -13t-19 0.5l-12 5v-1q-2 -5 -3 -9v-1q-3 -27 -17 -48l11 -11q7 -7 7 -17t-7 -17t-17 -7t-17 7l-11 11q-29 -19 -65 -18l-4 -15q-1 -4 -4 -8t-7 -6t-9 -3t-10 1q-9 3 -14 11.5t-2 18.5l4 13q-32 17 -49 49l-13 -4q-10 -3 -18.5 2
t-11.5 14q-2 7 -0.5 13t6 10.5t10.5 6.5l15 4v15l40 -3l-40 3v1h1v2v3q1 6 2 11q2 15 7 31q0 2 1 3l-12 5q-9 3 -13 12.5t-0.5 18.5t13 13t18.5 0l10 -4q10 24 23 46q3 5 6 9l-15 12q-8 6 -9 16t5 18t16 9t18 -5l13 -11q22 25 48 47l-8 12q-5 8 -3.5 18t10 15t18 3.5
t15.5 -10.5l7 -10q28 19 60 32l-5 12q-4 9 -0.5 18t13 13t18.5 0.5t13 -13.5l6 -13q16 5 35 9q15 4 30 3l4 15q3 9 11.5 14t18 2t14.5 -11.5t2 -18.5zM92 85l52 -5zM112 128q0 -28 24 -41.5t48 0t24 41.5t-24 41.5t-48 0t-24 -41.5zM240 264q-10 0 -17 -7t-7 -17t7 -17
t17 -7t17 7t7 17t-7 17t-17 7z" />
    <glyph glyph-name="box-tissue" unicode="box&#x2d;tissue" 
d="M92 448q-11 0 -19.5 -8.5t-8.5 -20.5q0 -3 1 -6l47 -189l16 -64h256l26 64l36 91q2 5 2 10q0 11 -8 19t-19 8h-85q-19 0 -32 8t-18.5 16t-13.5 24t-13.5 24t-18.5 16t-32 8h-116zM79 224h-31q-20 0 -34 -14t-14 -34v-112h512v112q0 20 -14 34t-34 14h-20l-25 -64h13
q7 0 11.5 -4.5t4.5 -11.5t-4.5 -11.5t-11.5 -4.5h-48h-256h-48q-7 0 -11.5 4.5t-4.5 11.5t4.5 11.5t11.5 4.5h15zM0 32v-48q0 -20 14 -34t34 -14h416q20 0 34 14t14 34v48h-512z" />
    <glyph glyph-name="hand-holding-medical" unicode="hand&#x2d;holding&#x2d;medical" horiz-adv-x="576" 
d="M224 424q0 10 7 17t17 7h48q10 0 17 -7t7 -17v-56h56q10 0 17 -7t7 -17v-48q0 -10 -7 -17t-17 -7h-56v-56q0 -10 -7 -17t-17 -7h-48q-10 0 -17 7t-7 17v56h-56q-10 0 -17 7t-7 17v48q0 10 7 17t17 7h56v56zM560 56l-127 -94q-36 -26 -80 -26h-161h-160q-13 0 -22.5 9.5
t-9.5 22.5v64q0 13 9.5 22.5t22.5 9.5h37l45 36q35 28 80 28h78h16h64q13 0 22.5 -9.5t9.5 -22.5t-9.5 -22.5t-22.5 -9.5h-64h-16q-7 0 -11.5 -4.5t-4.5 -11.5t4.5 -11.5t11.5 -4.5h121l119 88q14 10 30 7.5t26 -16t7.5 -29.5t-15.5 -26zM193 64h1h-1z" />
    <glyph glyph-name="hand-sparkles" unicode="hand&#x2d;sparkles" horiz-adv-x="640" 
d="M320 448q-13 0 -22.5 -9.5t-9.5 -22.5v-208q0 -7 -4.5 -11.5t-11.5 -4.5t-11.5 4.5t-4.5 11.5v176q0 13 -9.5 22.5t-22.5 9.5t-22.5 -9.5t-9.5 -22.5v-272v-2.5v-2.5l-60 58q-12 11 -29 11t-28 -12t-11 -29t12 -28l113 -107q67 -64 160 -64h19q62 0 111 39q-9 3 -16 9
t-11 14.5t-4 17.5q0 14 8.5 25.5t22.5 15.5l31 9l9 31q6 20 25 28v195q0 13 -9.5 22.5t-22.5 9.5t-22.5 -9.5t-9.5 -22.5v-112q0 -7 -4.5 -11.5t-11.5 -4.5t-11.5 4.5t-4.5 11.5v176q0 13 -9.5 22.5t-22.5 9.5t-22.5 -9.5t-9.5 -22.5v-176q0 -7 -4.5 -11.5t-11.5 -4.5
t-11.5 4.5t-4.5 11.5v208q0 13 -9.5 22.5t-22.5 9.5zM313 121l7 -25l25 -7q7 -2 7 -9t-7 -9l-25 -7l-7 -25q-2 -7 -9 -7t-9 7l-7 25l-25 7q-7 2 -7 9t7 9l25 7l7 25q2 7 9 7t9 -7zM104 328l-14 48q-2 8 -10 8t-10 -8l-14 -48l-48 -14q-8 -2 -8 -10t8 -10l48 -14l14 -48
q2 -8 10 -8t10 8l14 48l48 14q8 2 8 10t-8 10zM584 40l-14 48q-2 8 -10 8t-10 -8l-14 -48l-48 -14q-8 -2 -8 -10t8 -10l48 -14l14 -48q2 -8 10 -8t10 8l14 48l48 14q8 2 8 10t-8 10z" />
    <glyph glyph-name="hands-bubbles" unicode="hands&#x2d;bubbles" horiz-adv-x="576" 
d="M416 384q-13 0 -22.5 9.5t-9.5 22.5t9.5 22.5t22.5 9.5t22.5 -9.5t9.5 -22.5t-9.5 -22.5t-22.5 -9.5zM512 256q-13 0 -22.5 9.5t-9.5 22.5t9.5 22.5t22.5 9.5t22.5 -9.5t9.5 -22.5t-9.5 -22.5t-22.5 -9.5zM160 -16q0 -28 -24 -41.5t-48 0t-24 41.5t24 41.5t48 0t24 -41.5
zM32 288q0 13 9.5 22.5t22.5 9.5t22.5 -9.5t9.5 -22.5v-49l43 75v0l68 118q5 8 14.5 10.5t18.5 -2.5t11.5 -14.5t-2.5 -17.5l-62 -108q-6 -10 4.5 -16t16.5 4l78 135q5 9 14.5 11.5t18 -2.5t11 -14.5t-2.5 -18.5l-46 -79q-14 -2 -27 -10l-60 -37q-30 -19 -52.5 -47t-34 -61
t-11.5 -69v-8v-6q-30 24 -47 59t-17 74v73zM332 360q5 8 14.5 10.5t18 -2.5t11.5 -14.5t-2 -17.5l-29 -50q-1 2 -3 4q-12 20 -34 27zM378 296q5 8 15 11t18.5 -2t11 -15t-2.5 -18l-23 -40h-32h-13h-5q4 9 5 17zM315 273q7 -11 4 -24t-14 -20l-46 -29h93v0h136q10 0 17 -7
t7 -17t-7 -17t-17 -7h-124q-5 0 -8.5 -3.5t-3.5 -8.5t3.5 -8.5t8.5 -3.5h156q10 0 17 -7t7 -17t-7 -17t-17 -7h-156q-5 0 -8.5 -3.5t-3.5 -8.5t3.5 -8.5t8.5 -3.5h124q10 0 17 -7t7 -17t-7 -17t-17 -7h-124q-5 0 -8.5 -3.5t-3.5 -8.5t3.5 -8.5t8.5 -3.5h92q10 0 17 -7t7 -17
t-7 -17t-17 -7h-176q-50 0 -90 30q2 8 2 18q0 28 -17.5 50t-44.5 28q-2 13 -2 26v8q0 46 22 85.5t61 64.5l60 37q11 7 24 4t20 -14zM315 273z" />
    <glyph glyph-name="handshake-simple-slash" unicode="handshake&#x2d;simple&#x2d;slash" horiz-adv-x="640" 
d="M39 443l125 -99l36 24q24 16 53 16q19 0 37 -7l-82 -67l26 -20l89 73q27 21 60 21q28 0 52 -15l72 -47l4 -2h1h4h76q20 0 34 -14t14 -34v-128q0 -20 -14 -34t-34 -14h-42l-177 163l21 16q12 10 2.5 22.5t-22.5 3.5l-77 -61l26 -20l23 18l134 -123q14 -12 16 -30l135 -106
q8 -6 9 -16t-5 -18t-16 -9t-18 5l-592 464q-8 6 -9 16t5 18t16 9t18 -5zM414 26h-1q-1 -2 -2 -2q-13 -15 -33 -16t-35 13l-17 15q-2 -11 -11 -20q-13 -15 -33 -16t-34 13l-92 83h-108q-20 0 -34 14t-14 34v128q0 9 3 17t8.5 14.5t13.5 10.5t16 6zM414 26z" />
    <glyph glyph-name="handshake-slash" unicode="handshake&#x2d;slash" horiz-adv-x="640" 
d="M39 443l125 -99l36 24q24 16 53 16q19 0 37 -7l-82 -67l26 -20l89 73q27 21 60 21q28 0 52 -15l72 -47l4 -2h1v-189l-139 128l21 16q12 10 2.5 22.5t-22.5 3.5l-77 -61l26 -20l23 18l134 -123q14 -12 16 -30l135 -106q8 -6 9 -16t-5 -18t-16 -9t-18 5l-592 464
q-8 6 -9 16t5 18t16 9t18 -5zM414 26q-2 -2 -3 -2q-13 -15 -33 -16t-35 13l-17 15q-2 -11 -11 -20q-13 -15 -33 -16t-34 13l-92 83h-28v155zM96 276v-180q0 -13 -9.5 -22.5t-22.5 -9.5h-32q-13 0 -22.5 9.5t-9.5 22.5v208q0 7 4.5 11.5t11.5 4.5h25zM48 128q-7 0 -11.5 -4.5
t-4.5 -11.5t4.5 -11.5t11.5 -4.5t11.5 4.5t4.5 11.5t-4.5 11.5t-11.5 4.5zM544 320h80q7 0 11.5 -4.5t4.5 -11.5v-208q0 -13 -9.5 -22.5t-22.5 -9.5h-32q-13 0 -22.5 9.5t-9.5 22.5v224zM576 112q0 -7 4.5 -11.5t11.5 -4.5t11.5 4.5t4.5 11.5t-4.5 11.5t-11.5 4.5
t-11.5 -4.5t-4.5 -11.5z" />
    <glyph glyph-name="head-side-cough" unicode="head&#x2d;side&#x2d;cough" horiz-adv-x="640" 
d="M0 224q0 -77 47 -137q17 -23 17 -46v-73q0 -13 9.5 -22.5t22.5 -9.5h160h40q10 0 17 7t7 17v8h80q20 0 34 14t14 34v16l-107 7q-9 0 -15 6.5t-6 15.5q0 8 5.5 14t13.5 7l109 14v32h20q18 0 31 13t13 31q0 15 -10 27l-42 53q-11 14 -15 36q-8 45 -36.5 81.5t-71 57.5
t-89.5 21h-24q-61 0 -112.5 -30t-81.5 -81.5t-30 -112.5zM352 224q-13 0 -22.5 9.5t-9.5 22.5t9.5 22.5t22.5 9.5t22.5 -9.5t9.5 -22.5t-9.5 -22.5t-22.5 -9.5zM464 64q0 -10 7 -17t17 -7t17 7t7 17t-7 17t-17 7t-17 -7t-7 -17zM616 88q-10 0 -17 -7t-7 -17t7 -17t17 -7
t17 7t7 17t-7 17t-17 7zM592 -32q0 -10 7 -17t17 -7t17 7t7 17t-7 17t-17 7t-17 -7t-7 -17zM552 136q-10 0 -17 -7t-7 -17t7 -17t17 -7t17 7t7 17t-7 17t-17 7zM592 160q0 -10 7 -17t17 -7t17 7t7 17t-7 17t-17 7t-17 -7t-7 -17zM552 40q-10 0 -17 -7t-7 -17t7 -17t17 -7
t17 7t7 17t-7 17t-17 7z" />
    <glyph glyph-name="head-side-cough-slash" unicode="head&#x2d;side&#x2d;cough&#x2d;slash" horiz-adv-x="640" 
d="M448 122v6h20q18 0 31 13t13 31q0 15 -10 27l-42 53q-11 14 -15 36q-8 45 -36.5 81.5t-71 57.5t-89.5 21h-24q-75 0 -134 -45l-51 40q-8 6 -18 5t-16 -9t-5 -18t9 -16l592 -464q8 -6 18 -5t16 9q11 14 0 29h4q-5 18 -23 18h-1h-1l-39 31q-5 16 -22 17l-43 34
q-5 11 -18 14zM0 224q0 -77 47 -137q17 -23 17 -46v-73q0 -13 9.5 -22.5t22.5 -9.5h160h40q10 0 17 7t7 17v8h80q16 0 28.5 9t17.5 24l-43 34l-62 4q-6 0 -10.5 3t-7.5 8t-3 11q0 8 5.5 14t13.5 7l3 1l-315 248q-27 -50 -27 -107zM616 88q-10 0 -17 -7t-7 -17t7 -17t17 -7
t17 7t7 17t-7 17t-17 7zM552 136q-10 0 -17 -7t-7 -17t7 -17t17 -7t17 7t7 17t-7 17t-17 7zM592 160q0 -10 7 -17t17 -7t17 7t7 17t-7 17t-17 7t-17 -7t-7 -17z" />
    <glyph glyph-name="head-side-mask" unicode="head&#x2d;side&#x2d;mask" horiz-adv-x="576" 
d="M32 224q0 -77 47 -138q17 -22 17 -45v-73q0 -13 9.5 -22.5t22.5 -9.5h128v160q0 16 6 31l-221 161q-9 -31 -9 -64zM280 153q24 23 56 23h208q-1 13 -10 23l-42 53q-11 14 -15 36q-12 68 -68.5 114t-128.5 46h-24q-66 0 -121 -35.5t-82 -93.5zM336 144q-19 0 -32 -13
q-16 -14 -16 -35v-160h145q14 0 26.5 5.5t21.5 16t13 23.5l1 3h-127q-7 0 -11.5 4.5t-4.5 11.5t4.5 11.5t11.5 4.5h137l9 32h-146q-7 0 -11.5 4.5t-4.5 11.5t4.5 11.5t11.5 4.5h156l20 64h-10h-198zM384 224q-13 0 -22.5 9.5t-9.5 22.5t9.5 22.5t22.5 9.5t22.5 -9.5
t9.5 -22.5t-9.5 -22.5t-22.5 -9.5z" />
    <glyph glyph-name="head-side-virus" unicode="head&#x2d;side&#x2d;virus" 
d="M0 224q0 -77 47 -138q17 -22 17 -45v-73q0 -13 9.5 -22.5t22.5 -9.5h192q13 0 22.5 9.5t9.5 22.5v32h64q26 0 45 19t19 45v64h20q18 0 31 13t13 31q0 15 -10 27l-42 53q-11 14 -15 36q-8 45 -36.5 81.5t-71 57.5t-89.5 21h-24q-61 0 -112.5 -30t-81.5 -81.5t-30 -112.5z
M224 384q7 0 11.5 -4.5t4.5 -11.5q0 -25 23 -34.5t40 8.5q5 4 11.5 4t11 -4.5t4.5 -11t-4 -11.5q-18 -17 -8.5 -40t34.5 -23q7 0 11.5 -4.5t4.5 -11.5t-4.5 -11.5t-11.5 -4.5q-25 0 -34.5 -23t8.5 -40q4 -5 4 -11.5t-4.5 -11t-11 -4.5t-11.5 4q-17 18 -40 8.5t-23 -34.5
q0 -7 -4.5 -11.5t-11.5 -4.5t-11.5 4.5t-4.5 11.5q0 25 -23 34.5t-40 -8.5q-5 -4 -11.5 -4t-11 4.5t-4.5 11t4 11.5q18 17 8.5 40t-34.5 23q-7 0 -11.5 4.5t-4.5 11.5t4.5 11.5t11.5 4.5q25 0 34.5 23t-8.5 40q-4 5 -4 11.5t4.5 11t11 4.5t11.5 -4q17 -18 40 -8.5t23 34.5
q0 7 4.5 11.5t11.5 4.5zM200 288q-10 0 -17 -7t-7 -17t7 -17t17 -7t17 7t7 17t-7 17t-17 7zM240 208q0 -7 4.5 -11.5t11.5 -4.5t11.5 4.5t4.5 11.5t-4.5 11.5t-11.5 4.5t-11.5 -4.5t-4.5 -11.5z" />
    <glyph glyph-name="house-chimney-user" unicode="house&#x2d;chimney&#x2d;user" horiz-adv-x="576" 
d="M544 160h-32v-160q1 -17 -7.5 -32t-23.5 -23.5t-33 -8.5h-320q-26 0 -45 19t-19 45v160h-32q-13 0 -22.5 9.5t-9.5 22.5q0 14 10 24l256 224q8 8 22 8q13 0 22 -7l106 -94v37q0 13 9.5 22.5t22.5 9.5h32q13 0 22.5 -9.5t9.5 -22.5v-121l53 -47q12 -10 11 -24
q0 -13 -9.5 -22.5t-22.5 -9.5zM288 288q-37 0 -55.5 -32t0 -64t55.5 -32t55.5 32t0 64t-55.5 32zM176 48q0 -7 4.5 -11.5t11.5 -4.5h192q7 0 11.5 4.5t4.5 11.5q0 33 -23.5 56.5t-56.5 23.5h-64q-33 0 -56.5 -23.5t-23.5 -56.5z" />
    <glyph glyph-name="house-laptop" unicode="house&#x2d;laptop" horiz-adv-x="640" 
d="M218 440l-208 -192q-16 -15 -8 -35.5t30 -20.5h32v-112q0 -20 14 -34t34 -14h160v128h-64q-7 0 -11.5 4.5t-4.5 11.5v64q0 7 4.5 11.5t11.5 4.5h64q7 0 11.5 -4.5t4.5 -11.5v-38q19 22 48 22h144q0 14 -10 24l-208 192q-9 8 -21.5 8t-22.5 -8zM352 144h192v-144h-192v144
zM304 160v-160h-32q-7 0 -11.5 -4.5t-4.5 -11.5q0 -20 14 -34t34 -14h48h192h48q20 0 34 14t14 34q0 7 -4.5 11.5t-11.5 4.5h-32v160q0 13 -9.5 22.5t-22.5 9.5h-224q-13 0 -22.5 -9.5t-9.5 -22.5z" />
    <glyph glyph-name="lungs-virus" unicode="lungs&#x2d;virus" horiz-adv-x="640" 
d="M320 448q-13 0 -22.5 -9.5t-9.5 -22.5v-124q14 12 32 12t32 -12v124q0 13 -9.5 22.5t-22.5 9.5zM444 252q14 -14 14 -33.5t-14 -34.5q-1 -1 -1 -2v-3l2 -2t3 -1q20 0 34 -14t14 -34t-14 -34t-34 -14q-2 0 -3 -1l-2 -2v-3q0 -1 1 -2q14 -15 14 -34.5t-14 -33.5l-22 22
l22 -22q-16 -17 -39 -14q20 -25 52 -33l72 -18q11 -3 22 -3q37 0 63 26t26 63v7v4q-9 73 -60 170q-30 59 -71 117q-20 29 -56 29q-28 0 -48.5 -20.5t-20.5 -48.5v-24q14 9 31 7.5t29 -14.5zM421.5 26.5q4.5 4.5 4.5 11t-4 11.5q-18 17 -8.5 40t34.5 23q7 0 11.5 4.5
t4.5 11.5t-4.5 11.5t-11.5 4.5q-25 0 -34.5 23t8.5 40q4 5 4 11.5t-4.5 11t-11 4.5t-11.5 -4q-17 -18 -40 -8.5t-23 34.5q0 7 -4.5 11.5t-11.5 4.5t-11.5 -4.5t-4.5 -11.5q0 -25 -23 -34.5t-40 8.5q-5 4 -11.5 4t-11 -4.5t-4.5 -11t4 -11.5q18 -17 8.5 -40t-34.5 -23
q-7 0 -11.5 -4.5t-4.5 -11.5t4.5 -11.5t11.5 -4.5q25 0 34.5 -23t-8.5 -40q-4 -5 -4 -11.5t4.5 -11t11 -4.5t11.5 4q17 18 40 8.5t23 -34.5q0 -7 4.5 -11.5t11.5 -4.5t11.5 4.5t4.5 11.5q0 25 23 34.5t40 -8.5q5 -4 11.5 -4t11 4.5zM183 -43q31 8 52 33q-23 -3 -39 14
q-15 14 -15 34t15 34q1 1 1 2v3q-1 2 -2 2.5t-3 0.5q-20 0 -34 14t-14 34t14 34t34 14q1 0 3 1l2 2v3t-1 3q-15 14 -15 33.5t15 33.5q12 13 29 14.5t31 -7.5v24q0 28 -20.5 48.5t-48.5 20.5q-36 0 -56 -29q-40 -58 -71 -117q-51 -97 -60 -170v-4v-7q0 -37 26 -63t63 -26
q11 0 22 3zM296 128q-10 0 -17 7t-7 17t7 17t17 7t17 -7t7 -17t-7 -17t-17 -7zM368 96q0 -7 -4.5 -11.5t-11.5 -4.5t-11.5 4.5t-4.5 11.5t4.5 11.5t11.5 4.5t11.5 -4.5t4.5 -11.5z" />
    <glyph glyph-name="people-arrows" unicode="people&#x2d;arrows&#x2d;left&#x2d;right" horiz-adv-x="640" 
d="M64 384q0 -37 32 -55q15 -9 32 -9t32 9q32 18 32 55t-32 55q-15 9 -32 9t-32 -9q-32 -18 -32 -55zM26 215l-4 -50q-2 -22 10 -40t32 -25v-116q0 -20 14 -34t34 -14h32q20 0 34 14t14 34v73l-48 47q-16 17 -16 40t16 40l64 64l8 6q-24 34 -66 34h-44q-32 0 -55 -21
t-25 -52zM448 384q0 -37 32 -55.5t64 0t32 55.5t-32 55.5t-64 0t-32 -55.5zM432 248l64 -64q16 -17 16 -40t-16 -40l-48 -47v-73q0 -20 14 -34t34 -14h32q20 0 34 14t14 34v116q20 7 32 25t10 40l-4 50q-2 31 -25 52t-55 21h-44q-42 0 -66 -34q5 -3 8 -6zM272 208
q0 16 -15 22t-26 -5l-64 -64q-7 -7 -7 -17t7 -17l64 -64q11 -11 26 -5t15 22v32h96v-32q0 -16 15 -22t26 5l64 64q7 7 7 17t-7 17l-64 64q-11 11 -26 5t-15 -22v-32h-96v32zM272 208z" />
    <glyph glyph-name="plane-slash" unicode="plane&#x2d;slash" horiz-adv-x="640" 
d="M514 256h-116l-101 176q-9 16 -28 16h-56q-8 0 -12.5 -6.5t-2.5 -13.5l40 -141l-199 156q-8 6 -18 5t-16 -9t-5 -18t9 -16l592 -464q8 -6 18 -5t16 9t5 18t-9 16l-190 149h73q29 0 61.5 19.5t32.5 44.5q0 24 -32.5 44t-61.5 20zM41 319q-9 -3 -9 -13v-4l32 -110l-32 -110
v-4q0 -14 14 -14h42q8 0 13 6l43 58h103l-49 -172q-2 -7 2.5 -13.5t12.5 -6.5h56q19 0 28 16l65 114z" />
    <glyph glyph-name="pump-medical" unicode="pump&#x2d;medical" horiz-adv-x="448" 
d="M128 416q0 9 4.5 16t11.5 11.5t16 4.5h64q13 0 22.5 -9.5t9.5 -22.5h60q33 0 57 -23l34 -34q9 -10 9 -23t-9.5 -22.5t-22.5 -9.5t-23 9l-34 34q-4 5 -11 5h-60v-32h-128v96zM117 288h150q16 0 30 -7.5t23 -21t10 -30.5l19 -224q2 -28 -17 -48.5t-47 -20.5h-186
q-28 0 -47 20.5t-17 48.5l19 224q2 25 20 42t43 17zM216 168q0 10 -7 17t-17 7t-17 -7t-7 -17v-32h-32q-10 0 -17 -7t-7 -17t7 -17t17 -7h32v-32q0 -10 7 -17t17 -7t17 7t7 17v32h32q10 0 17 7t7 17t-7 17t-17 7h-32v32z" />
    <glyph glyph-name="pump-soap" unicode="pump&#x2d;soap" horiz-adv-x="448" 
d="M128 416q0 9 4.5 16t11.5 11.5t16 4.5h64q13 0 22.5 -9.5t9.5 -22.5h60q33 0 57 -23l34 -34q9 -10 9 -23t-9.5 -22.5t-22.5 -9.5t-23 9l-34 34q-4 5 -11 5h-60v-32h-128v96zM117 288h150q16 0 30 -7.5t23 -21t10 -30.5l19 -224q2 -28 -17 -48.5t-47 -20.5h-186
q-28 0 -47 20.5t-17 48.5l19 224q2 25 20 42t43 17zM256 88q0 36 -51 98q-5 6 -13 6t-13 -6q-51 -62 -51 -98q0 -26 18.5 -41t45.5 -15t45.5 15t18.5 41z" />
    <glyph glyph-name="shield-virus" unicode="shield&#x2d;virus" 
d="M269 445l189 -80q17 -7 27.5 -22.5t10.5 -34.5q0 -42 -10 -88t-32 -98.5t-66.5 -100t-105.5 -76.5q-26 -13 -52 0q-61 29 -105.5 76.5t-66.5 100t-32 98.5t-10 88q0 19 10.5 34.5t27.5 22.5l189 80q6 3 13 3t13 -3zM256 336q-7 0 -11.5 -4.5t-4.5 -11.5q0 -25 -23 -34.5
t-40 8.5q-5 4 -11.5 4t-11 -4.5t-4.5 -11t4 -11.5q18 -17 8.5 -40t-34.5 -23q-7 0 -11.5 -4.5t-4.5 -11.5t4.5 -11.5t11.5 -4.5q25 0 34.5 -23t-8.5 -40q-4 -5 -4 -11.5t4.5 -11t11 -4.5t11.5 4q17 18 40 8.5t23 -34.5q0 -7 4.5 -11.5t11.5 -4.5t11.5 4.5t4.5 11.5
q0 25 23 34.5t40 -8.5q5 -4 11.5 -4t11 4.5t4.5 11t-4 11.5q-18 17 -8.5 40t34.5 23q7 0 11.5 4.5t4.5 11.5t-4.5 11.5t-11.5 4.5q-25 0 -34.5 23t8.5 40q4 5 4 11.5t-4.5 11t-11 4.5t-11.5 -4q-17 -18 -40 -8.5t-23 34.5q0 7 -4.5 11.5t-11.5 4.5zM232 192q-10 0 -17 7
t-7 17t7 17t17 7t17 -7t7 -17t-7 -17t-17 -7zM304 160q0 -7 -4.5 -11.5t-11.5 -4.5t-11.5 4.5t-4.5 11.5t4.5 11.5t11.5 4.5t11.5 -4.5t4.5 -11.5z" />
    <glyph glyph-name="sink" unicode="sink" 
d="M288 352v-192h64v24q0 23 16.5 39.5t39.5 16.5h56q10 0 17 -7t7 -17t-7 -17t-17 -7h-56q-8 0 -8 -8v-24h80q13 0 22.5 -9.5t9.5 -22.5t-9.5 -22.5t-22.5 -9.5h-224h-224q-13 0 -22.5 9.5t-9.5 22.5t9.5 22.5t22.5 9.5h80v24q0 8 -8 8h-48q-10 0 -17 7t-7 17t7 17t17 7h48
q23 0 39.5 -16.5t16.5 -39.5v-24h64v192q0 40 28 68t68 28t68 -28t28 -68q0 -13 -9.5 -22.5t-22.5 -9.5t-22.5 9.5t-9.5 22.5t-9.5 22.5t-22.5 9.5t-22.5 -9.5t-9.5 -22.5zM480 32q0 -40 -28 -68t-68 -28h-256q-40 0 -68 28t-28 68v32h448v-32z" />
    <glyph glyph-name="soap" unicode="soap" 
d="M208 352q-28 0 -41.5 24t0 48t41.5 24t41.5 -24t0 -48t-41.5 -24zM320 192q-37 0 -55.5 32t0 64t55.5 32t55 -32q9 -15 9 -32t-9 -32q-18 -32 -55 -32zM416 416q0 -13 -9.5 -22.5t-22.5 -9.5t-22.5 9.5t-9.5 22.5t9.5 22.5t22.5 9.5t22.5 -9.5t9.5 -22.5zM416 256
q40 0 68 -28t28 -68v-128q0 -40 -28 -68t-68 -28h-320q-40 0 -68 28t-28 68v128q0 40 28 68t68 28h128q0 -37 24 -64h-88q-40 0 -68 -28t-28 -68t28 -68t68 -28h192q40 0 68 28t28 68q0 31 -17.5 55.5t-44.5 34.5q30 29 30 70zM160 160h160h32q26 0 45 -19t19 -45t-19 -45
t-45 -19h-192q-26 0 -45 19t-19 45t19 45t45 19z" />
    <glyph glyph-name="stopwatch-20" unicode="stopwatch&#x2d;&#x32;&#x30;" horiz-adv-x="448" 
d="M176 448h96q13 0 22.5 -9.5t9.5 -22.5t-9.5 -22.5t-22.5 -9.5h-16v-34q56 -9 100 -45l21 22q10 9 23 9t22.5 -9.5t9.5 -22.5t-9 -23l-25 -24q34 -51 34 -113q0 -86 -61 -147t-147 -61t-147 61t-61 147q0 77 50.5 135.5t125.5 70.5v34h-16q-13 0 -22.5 9.5t-9.5 22.5
t9.5 22.5t22.5 9.5zM288 244q-22 0 -37 -15t-15 -37v-96q0 -22 15 -37t37 -15t37 15t15 37v96q0 22 -15 37t-37 15zM276 192q0 5 3.5 8.5t8.5 3.5t8.5 -3.5t3.5 -8.5v-96q0 -5 -3.5 -8.5t-8.5 -3.5t-8.5 3.5t-3.5 8.5v96zM160 204h-1q6 0 9.5 -3.5t3.5 -9.5v-2q0 -5 -4 -10
l-39 -44q-21 -23 -21 -55v-16q0 -8 6 -14t14 -6h64q8 0 14 6t6 14t-6 14t-14 6h-44q2 14 11 25l39 44q14 15 14 36v3q0 21 -15.5 36.5t-36.5 15.5q-17 0 -31 -10t-19 -26l-1 -2q-3 -7 1 -14.5t12 -10.5t15 1t10 12l1 1q2 9 12 9zM160 204z" />
    <glyph glyph-name="shop-slash" unicode="store&#x2d;alt&#x2d;slash" horiz-adv-x="640" 
d="M39 443l35 -28l8 12q14 21 40 21h396q26 0 40 -21l76 -114q6 -9 6 -20q0 -15 -11 -26t-26 -11h-326l43 -34v2h64v-52l128 -100v152h64v-202l55 -43q8 -6 9 -16t-5 -18t-16 -9t-18 5l-592 464q-8 6 -9 16t5 18t16 9t18 -5zM37 256q-15 0 -26 11t-11 26q0 11 6 20l15 22
l101 -79h-85zM320 64v36l64 -51v-65q0 -20 -14 -34t-34 -14h-224q-20 0 -34 14t-14 34v80v160h64v-160h192z" />
    <glyph glyph-name="store-slash" unicode="store&#x2d;slash" horiz-adv-x="640" 
d="M39 443l56 -44l23 36q8 13 24 13h356q16 0 24 -13l58 -91q22 -35 5.5 -74.5t-57.5 -44.5q-7 -1 -12 -1q-39 0 -66 29q-26 -29 -65 -29t-65 29q-8 -9 -19 -16l179 -140v100q17 -5 35 -5q8 0 17 1q5 1 12 2v-131v-17l87 -68q8 -6 9 -16t-5 -18t-16 -9t-18 5l-592 464
q-8 6 -9 16t5 18t16 9t18 -5zM112 225q-32 4 -50 30.5t-13 58.5l106 -84q-15 -6 -31 -6q-5 0 -12 1zM160 64h205l150 -118q-16 -10 -35 -10h-320q-26 0 -45 19t-19 45v64v131q5 -1 12 -2q8 -1 16 -1q19 0 36 5v-133z" />
    <glyph glyph-name="toilet-paper-slash" unicode="toilet&#x2d;paper&#x2d;slash" horiz-adv-x="640" 
d="M39 443l57 -45q27 50 64 50h284q-60 -64 -60 -192q0 -41 -3 -82l59 -46q-24 55 -24 128q0 80 28 136t68 56t68 -56t28 -136q0 -49 -11.5 -91.5t-31.5 -69t-44 -30.5l110 -86q8 -6 9 -16t-5 -18t-16 -9t-18 5l-592 464q-8 6 -9 16t5 18t16 9t18 -5zM367 63
q-10 -54 -26 -91q-7 -17 -22.5 -26.5t-32.5 -9.5h-238q-19 0 -28 16t1 32q10 19 20 58q23 88 23 214q0 22 2 44zM544 256q0 26 -9.5 45t-22.5 19q-9 0 -16 -8.5t-11.5 -23.5t-4.5 -32q0 -26 9.5 -45t22.5 -19t22.5 19t9.5 45z" />
    <glyph glyph-name="users-slash" unicode="users&#x2d;slash" horiz-adv-x="640" 
d="M39 443l39 -31q23 36 66 36q33 0 56.5 -23.5t23.5 -56.5q0 -31 -21 -54l41 -32q29 38 76 38q40 0 68 -28t28 -68q0 -34 -21 -60l25 -20q28 35 28 80q0 12 -2 22q21 10 45 10h42q44 0 75.5 -31.5t31.5 -75.5q0 -8 -6 -14.5t-15 -6.5h-178l190 -149q8 -6 9 -16t-5 -18
t-16 -9t-18 5l-592 464q-8 6 -9 16t5 18t16 9t18 -5zM107 256h15l73 -57q8 -42 40 -71h-214q-8 0 -14.5 6.5t-6.5 14.5q0 44 31.5 75.5t75.5 31.5zM261 96h64l184 -145q-7 -15 -24 -15h-330q-8 0 -14 3.5t-9.5 9.5t-3.5 14q0 55 39 94t94 39zM512 288q-46 0 -69 40
q-7 12 -9.5 26t0 28t9.5 26q23 40 69 40t69 -40q7 -12 9.5 -26t0 -28t-9.5 -26q-23 -40 -69 -40z" />
    <glyph glyph-name="virus" unicode="virus" 
d="M288 416v-12q0 -37 34.5 -51.5t61.5 12.5l8 8q9 9 22.5 9t22.5 -9t9 -22.5t-9 -22.5l-8 -8q-27 -27 -12.5 -61.5t52.5 -34.5h11q13 0 22.5 -9.5t9.5 -22.5t-9.5 -22.5t-22.5 -9.5h-11q-38 0 -52 -34.5t12 -61.5l8 -8q10 -9 10 -22.5t-9.5 -22.5t-23 -9t-22.5 9l-8 8
q-27 27 -61.5 12.5t-34.5 -52.5v-11q0 -13 -9.5 -22.5t-22.5 -9.5t-22.5 9.5t-9.5 22.5v11q0 38 -34.5 52.5t-60.5 -12.5l-9 -8q-9 -9 -22.5 -9t-22.5 9t-9 22.5t9 22.5l8 8q27 27 12.5 61.5t-51.5 34.5h-12q-13 0 -22.5 9.5t-9.5 22.5t9.5 22.5t22.5 9.5h12q37 0 51.5 34.5
t-12.5 60.5l-8 9q-9 9 -9 22.5t9 22.5t22.5 9t22.5 -9l8 -8q27 -27 61.5 -12.5t34.5 51.5v12q0 13 9.5 22.5t22.5 9.5t22.5 -9.5t9.5 -22.5zM176 224q0 -28 24 -41.5t48 0t24 41.5t-24 41.5t-48 0t-24 -41.5zM304 168q-10 0 -17 -7t-7 -17t7 -17t17 -7t17 7t7 17t-7 17
t-17 7z" />
    <glyph glyph-name="virus-slash" unicode="virus&#x2d;slash" horiz-adv-x="640" 
d="M39 443l96 -75q1 2 4 5q9 9 22.5 9t22.5 -9l8 -8q27 -27 61.5 -12.5t34.5 51.5v12q0 13 9.5 22.5t22.5 9.5t22.5 -9.5t9.5 -22.5v-12q0 -37 34.5 -51.5t61.5 12.5l8 8q9 9 22.5 9t22.5 -9t9 -22.5t-9 -22.5l-8 -8q-27 -27 -12.5 -61.5t51.5 -34.5h12q13 0 22.5 -9.5
t9.5 -22.5t-9.5 -22.5t-22.5 -9.5h-12q-25 0 -41 -18.5t-15 -41.5l155 -121q8 -6 9 -16t-5 -18t-16 -9t-18 5l-592 464q-8 6 -9 16t5 18t16 9t18 -5zM265 266l69 -55q2 6 2 13q0 20 -14 34t-34 14q-13 0 -23 -6zM402 35q-21 -2 -35.5 -17.5t-14.5 -37.5v-12
q0 -13 -9.5 -22.5t-22.5 -9.5t-22.5 9.5t-9.5 22.5v12q0 37 -34.5 51.5t-61.5 -12.5l-8 -8q-9 -9 -22.5 -9t-22.5 9t-9 22.5t9 22.5l8 8q27 27 12.5 61.5t-51.5 34.5h-12q-13 0 -22.5 9.5t-9.5 22.5t9.5 22.5t22.5 9.5h12q21 0 37 14zM402 35z" />
    <glyph glyph-name="viruses" unicode="viruses" horiz-adv-x="640" 
d="M192 448q-10 0 -17 -7t-7 -17v-14q0 -26 -24.5 -36.5t-43.5 8.5l-10 10q-7 7 -17 7t-17 -7t-7 -17t7 -17l10 -10q19 -19 8.5 -43.5t-36.5 -24.5h-14q-10 0 -17 -7t-7 -17t7 -17t17 -7h14q26 0 36.5 -24.5t-8.5 -43.5l-10 -10q-7 -7 -7 -17t7 -17t17 -7t17 7l10 10
q19 19 43.5 8.5t24.5 -36.5v-14q0 -10 7 -17t17 -7t17 7t7 17v14q0 26 24.5 36.5t43.5 -8.5l10 -10q7 -7 17 -7t17 7t7 17t-7 17l-10 10q-19 19 -8.5 43.5t36.5 24.5h14q10 0 17 7t7 17t-7 17t-17 7h-14q-26 0 -36.5 24.5t8.5 43.5l10 10q7 7 7 17t-7 17t-17 7t-17 -7
l-10 -10q-19 -19 -43.5 -8.5t-24.5 36.5v14q0 10 -7 17t-17 7zM240 224q-7 0 -11.5 4.5t-4.5 11.5t4.5 11.5t11.5 4.5t11.5 -4.5t4.5 -11.5t-4.5 -11.5t-11.5 -4.5zM192 288q0 -13 -9.5 -22.5t-22.5 -9.5t-22.5 9.5t-9.5 22.5t9.5 22.5t22.5 9.5t22.5 -9.5t9.5 -22.5z
M512 208q0 7 -4.5 11.5t-11.5 4.5t-11.5 -4.5t-4.5 -11.5q0 -25 -23 -34.5t-40 8.5q-5 4 -11.5 4t-11 -4.5t-4.5 -11t4 -11.5q18 -17 8.5 -40t-34.5 -23q-7 0 -11.5 -4.5t-4.5 -11.5t4.5 -11.5t11.5 -4.5q25 0 34.5 -23t-8.5 -40q-4 -5 -4 -11.5t4.5 -11t11 -4.5t11.5 4
q17 18 40 8.5t23 -34.5q0 -7 4.5 -11.5t11.5 -4.5t11.5 4.5t4.5 11.5q0 25 23 34.5t40 -8.5q5 -4 11.5 -4t11 4.5t4.5 11t-4 11.5q-18 17 -8.5 40t34.5 23q7 0 11.5 4.5t4.5 11.5t-4.5 11.5t-11.5 4.5q-25 0 -34.5 23t8.5 40q4 5 4 11.5t-4.5 11t-11 4.5t-11.5 -4
q-17 -18 -40 -8.5t-23 34.5zM512 96q0 -13 -9.5 -22.5t-22.5 -9.5t-22.5 9.5t-9.5 22.5t9.5 22.5t22.5 9.5t22.5 -9.5t9.5 -22.5z" />
    <glyph glyph-name="vest" unicode="vest" horiz-adv-x="448" 
d="M207 211l-11 -34q-4 -12 -4 -25v-168q0 -21 11 -40q-13 -8 -27 -8h-128q-20 0 -34 14t-14 34v193q0 15 8 27l48 72q8 12 8 26v18v74v6q0 20 14 34t34 14h4h1h1q24 0 44 -19q24 -21 62 -21t62 21q20 19 44 19h1h5q20 0 34 -14t14 -34v-6v-74v-18q0 -14 8 -26l48 -72
q8 -12 8 -27v-193q0 -20 -14 -34t-34 -14h-128q-20 0 -34 14t-14 34v168q0 8 3 15l70 211q-32 -18 -73 -18t-73 18zM347 91q-4 5 -11 5t-11.5 -4.5t-4.5 -11.5t5 -11l48 -48q4 -5 11 -5t11.5 4.5t4.5 11.5t-5 11zM53 43q-5 -4 -5 -11t4.5 -11.5t11.5 -4.5t11 5l48 48
q5 4 5 11t-4.5 11.5t-11.5 4.5t-11 -5z" />
    <glyph glyph-name="vest-patches" unicode="vest&#x2d;patches" horiz-adv-x="448" 
d="M151 378q32 -18 73 -18t73 18l-70 -211q-3 -7 -3 -15v-168q0 -20 14 -34t34 -14h128q20 0 34 14t14 34v194q0 14 -8 26l-48 72q-8 12 -8 27v17v74v6q0 20 -14 34t-34 14h-4h-1h-1q-24 0 -44 -19q-24 -21 -62 -21t-62 21q-20 19 -44 19h-1h-1h-4q-20 0 -34 -14t-14 -34v-6
v-74v-17q0 -15 -8 -27l-48 -72q-8 -12 -8 -26v-194q0 -20 14 -34t34 -14h128q14 0 27 8q-11 19 -11 40v168q0 13 4 26l11 33zM96 -8q-23 0 -35 20q-5 9 -5 20t5 20q12 20 35 20t34.5 -20t0 -40t-34.5 -20zM63.5 192.5q8.5 8.5 17.5 0.5l15 -16l16 16q8 8 16.5 -0.5
t0.5 -16.5l-16 -16l16 -15q8 -9 -0.5 -17.5t-16.5 0.5l-16 15l-15 -15q-9 -9 -17.5 -0.5t0.5 17.5l15 15l-15 16q-9 8 -0.5 16.5zM304 168q0 10 7 17t17 7t17 -7t7 -17v-8h8q10 0 17 -7t7 -17t-7 -17t-17 -7h-8h-32q-7 0 -11.5 4.5t-4.5 11.5v32v8z" />
    <glyph glyph-name="arrow-trend-down" unicode="arrow&#x2d;trend&#x2d;down" horiz-adv-x="576" 
d="M384 96h83l-147 147l-105 -106q-10 -9 -23 -9t-23 9l-160 160q-9 10 -9 23t9.5 22.5t22.5 9.5t23 -9l137 -138l105 106q10 9 23 9t23 -9l169 -170v83q0 13 9.5 22.5t22.5 9.5t22.5 -9.5t9.5 -22.5v-160q0 -13 -9.5 -22.5t-22.5 -9.5h-160q-13 0 -22.5 9.5t-9.5 22.5
t9.5 22.5t22.5 9.5z" />
    <glyph glyph-name="arrow-trend-up" unicode="arrow&#x2d;trend&#x2d;up" horiz-adv-x="576" 
d="M384 288h83l-147 -147l-105 106q-10 9 -23 9t-23 -9l-160 -160q-9 -10 -9 -23t9.5 -22.5t22.5 -9.5t23 9l137 138l105 -106q10 -9 23 -9t23 9l169 170v-83q0 -13 9.5 -22.5t22.5 -9.5t22.5 9.5t9.5 22.5v160q0 13 -9.5 22.5t-22.5 9.5h-160q-13 0 -22.5 -9.5t-9.5 -22.5
t9.5 -22.5t22.5 -9.5z" />
    <glyph glyph-name="arrow-up-from-bracket" unicode="arrow&#x2d;up&#x2d;from&#x2d;bracket" horiz-adv-x="448" 
d="M247 439l128 -128q9 -10 9 -23t-9.5 -22.5t-22.5 -9.5t-23 9l-73 74v-211q0 -13 -9.5 -22.5t-22.5 -9.5t-22.5 9.5t-9.5 22.5v211l-73 -74q-10 -9 -23 -9t-22.5 9.5t-9.5 22.5t9 23l128 128q10 9 23 9t23 -9zM64 96v-64q0 -13 9.5 -22.5t22.5 -9.5h256q13 0 22.5 9.5
t9.5 22.5v64q0 13 9.5 22.5t22.5 9.5t22.5 -9.5t9.5 -22.5v-64q0 -40 -28 -68t-68 -28h-256q-40 0 -68 28t-28 68v64q0 13 9.5 22.5t22.5 9.5t22.5 -9.5t9.5 -22.5z" />
    <glyph glyph-name="austral-sign" unicode="austral&#x2d;sign" horiz-adv-x="448" 
d="M254 396l71 -172h91q13 0 22.5 -9.5t9.5 -22.5t-9.5 -22.5t-22.5 -9.5h-64l13 -32h51q13 0 22.5 -9.5t9.5 -22.5t-9.5 -22.5t-22.5 -9.5h-24l21 -52q6 -12 1 -24t-17.5 -17.5t-24.5 -0.5t-18 18l-31 76h-198l-32 -76q-5 -13 -17 -18t-24.5 0.5t-17.5 17.5t0 24l22 52h-24
q-13 0 -22.5 9.5t-9.5 22.5t9.5 22.5t22.5 9.5h51l13 32h-64q-13 0 -22.5 9.5t-9.5 22.5t9.5 22.5t22.5 9.5h91l71 172q9 20 30 20t30 -20zM256 224l-32 77l-32 -77h64zM165 160l-13 -32h144l-13 32h-118z" />
    <glyph glyph-name="baht-sign" unicode="baht&#x2d;sign" horiz-adv-x="320" 
d="M144 448q9 0 16 -4.5t11.5 -11.5t4.5 -16v-32q46 0 79 -33t33 -79q0 -36 -21 -65q24 -15 38.5 -40t14.5 -55q0 -46 -33 -79t-79 -33h-32v-32q0 -13 -9.5 -22.5t-22.5 -9.5t-22.5 9.5t-9.5 22.5v32h-70q-18 0 -30 12t-12 30v118v22v42v122q0 16 11 27t27 11h74v32
q0 13 9.5 22.5t22.5 9.5zM112 320h-48v-96h48v96zM176 224q20 0 34 14t14 34t-14 34t-34 14v-96zM112 160h-48v-96h48v96zM176 64h32q20 0 34 14t14 34t-14 34t-34 14h-32v-96z" />
    <glyph glyph-name="bitcoin-sign" unicode="bitcoin&#x2d;sign" horiz-adv-x="320" 
d="M48 416v-32h-10q-16 0 -27 -11t-11 -27v-122v-42v-22v-118q0 -18 12 -30t30 -12h6v-32q0 -13 9.5 -22.5t22.5 -9.5t22.5 9.5t9.5 22.5v32h32v-32q0 -13 9.5 -22.5t22.5 -9.5t22.5 9.5t9.5 22.5v32q46 0 79 33t33 79q0 20 -6.5 38t-18.5 32.5t-28 24.5q21 29 21 65
q0 38 -22.5 67.5t-57.5 40.5v4v32q0 13 -9.5 22.5t-22.5 9.5t-22.5 -9.5t-9.5 -22.5v-32h-32v32q0 13 -9.5 22.5t-22.5 9.5t-22.5 -9.5t-9.5 -22.5zM64 224v96h112q20 0 34 -14t14 -34t-14 -34t-34 -14h-112zM176 160h32q20 0 34 -14t14 -34t-14 -34t-34 -14h-144v96h112z
" />
    <glyph glyph-name="bolt-lightning" unicode="bolt&#x2d;lightning" horiz-adv-x="384" 
d="M0 192q0 -13 9.5 -22.5t22.5 -9.5h144l-47 -189q-1 -3 -1 -7q0 -11 8.5 -19.5t20.5 -8.5h2q17 0 26 14l193 281q6 9 6 20q0 16 -11 26.5t-26 10.5h-139l46 123q2 5 2 10q0 11 -8 19t-19 8h-169q-8 0 -15 -3.5t-11.5 -10t-5.5 -14.5z" />
    <glyph glyph-name="book-bookmark" unicode="book&#x2d;bookmark" horiz-adv-x="448" 
d="M0 352v-320q0 -40 28 -68t68 -28h288h32q13 0 22.5 9.5t9.5 22.5t-9.5 22.5t-22.5 9.5v64q13 0 22.5 9.5t9.5 22.5v320q0 13 -9.5 22.5t-22.5 9.5h-32h-32v-191q0 -10 -9 -14t-17 2l-54 43l-54 -43q-8 -6 -17 -2t-9 14v191h-96q-40 0 -68 -28t-28 -68zM64 32
q0 13 9.5 22.5t22.5 9.5h256v-64h-256q-13 0 -22.5 9.5t-9.5 22.5z" />
    <glyph glyph-name="cable-car" unicode="cable&#x2d;car" 
d="M288 448q-13 0 -22.5 -9.5t-9.5 -22.5t9.5 -22.5t22.5 -9.5t22.5 9.5t9.5 22.5t-9.5 22.5t-22.5 9.5zM160 392q0 -13 9.5 -22.5t22.5 -9.5t22.5 9.5t9.5 22.5t-9.5 22.5t-22.5 9.5t-22.5 -9.5t-9.5 -22.5zM32 160v-160q0 -26 19 -45t45 -19h320q26 0 45 19t19 45v160
q0 26 -19 45t-45 19h-136v76l213 44q10 3 15.5 11t3 18t-10.5 15.5t-18 3.5l-232 -48l-232 -48q-5 -1 -9 -4t-6 -7t-3.5 -8.5t-0.5 -9.5q3 -10 11 -15.5t18 -3.5l203 42v-66h-136q-26 0 -45 -19t-19 -45zM96 160h64q7 0 11.5 -4.5t4.5 -11.5v-64q0 -7 -4.5 -11.5t-11.5 -4.5
h-64q-7 0 -11.5 4.5t-4.5 11.5v64q0 7 4.5 11.5t11.5 4.5zM208 144q0 7 4.5 11.5t11.5 4.5h64q7 0 11.5 -4.5t4.5 -11.5v-64q0 -7 -4.5 -11.5t-11.5 -4.5h-64q-7 0 -11.5 4.5t-4.5 11.5v64zM352 160h64q7 0 11.5 -4.5t4.5 -11.5v-64q0 -7 -4.5 -11.5t-11.5 -4.5h-64
q-7 0 -11.5 4.5t-4.5 11.5v64q0 7 4.5 11.5t11.5 4.5z" />
    <glyph glyph-name="camera-rotate" unicode="camera&#x2d;rotate" horiz-adv-x="640" 
d="M213 383q5 15 17.5 24t28.5 9h122q16 0 28.5 -9t17.5 -24l10 -31h75q26 0 45 -19t19 -45v-256q0 -26 -19 -45t-45 -19h-384q-26 0 -45 19t-19 45v256q0 26 19 45t45 19h75zM448 192v77q0 4 -3.5 7.5t-8 3.5t-7.5 -3l-24 -24q-35 35 -85 35t-85 -35l-20 -20q-7 -7 -7 -17
t7 -17t17 -7t17 7l20 20q21 21 51 21t51 -21l-24 -24q-3 -3 -3 -7.5t3.5 -8t7.5 -3.5h77q7 0 11.5 4.5t4.5 11.5zM192 128v-77q0 -4 3.5 -7.5t8 -3.5t7.5 3l24 24q35 -35 85 -35t85 35l20 20q7 7 7 17t-7 17t-17 7t-17 -7l-20 -20q-21 -21 -51 -21t-51 21l24 24q3 3 3 7.5
t-3.5 8t-7.5 3.5h-77q-7 0 -11.5 -4.5t-4.5 -11.5z" />
    <glyph glyph-name="cedi-sign" unicode="cedi&#x2d;sign" horiz-adv-x="384" 
d="M256 416v-35q46 -7 83 -35q11 -8 13 -21.5t-6 -24t-21.5 -12.5t-23.5 6q-20 16 -45 22v-248q25 6 45 22q10 8 23.5 6t21.5 -12.5t6 -24t-13 -21.5q-37 -28 -83 -35v-35q0 -13 -9.5 -22.5t-22.5 -9.5t-22.5 9.5t-9.5 22.5v35q-69 11 -114.5 64.5t-45.5 124.5t45.5 124.5
t114.5 64.5v35q0 13 9.5 22.5t22.5 9.5t22.5 -9.5t9.5 -22.5zM192 316q-42 -11 -69 -45.5t-27 -78.5t27 -78.5t69 -45.5v248z" />
    <glyph glyph-name="chart-column" unicode="chart&#x2d;column" 
d="M32 416q-13 0 -22.5 -9.5t-9.5 -22.5v-336q0 -33 23.5 -56.5t56.5 -23.5h400q13 0 22.5 9.5t9.5 22.5t-9.5 22.5t-22.5 9.5h-400q-7 0 -11.5 4.5t-4.5 11.5v336q0 13 -9.5 22.5t-22.5 9.5zM160 224q-13 0 -22.5 -9.5t-9.5 -22.5v-64q0 -13 9.5 -22.5t22.5 -9.5t22.5 9.5
t9.5 22.5v64q0 13 -9.5 22.5t-22.5 9.5zM288 288q0 13 -9.5 22.5t-22.5 9.5t-22.5 -9.5t-9.5 -22.5v-160q0 -13 9.5 -22.5t22.5 -9.5t22.5 9.5t9.5 22.5v160zM352 256q-13 0 -22.5 -9.5t-9.5 -22.5v-96q0 -13 9.5 -22.5t22.5 -9.5t22.5 9.5t9.5 22.5v96q0 13 -9.5 22.5
t-22.5 9.5zM480 352q0 13 -9.5 22.5t-22.5 9.5t-22.5 -9.5t-9.5 -22.5v-224q0 -13 9.5 -22.5t22.5 -9.5t22.5 9.5t9.5 22.5v224z" />
    <glyph glyph-name="chart-gantt" unicode="chart&#x2d;gantt" 
d="M32 416q-13 0 -22.5 -9.5t-9.5 -22.5v-336q0 -33 23.5 -56.5t56.5 -23.5h400q13 0 22.5 9.5t9.5 22.5t-9.5 22.5t-22.5 9.5h-400q-7 0 -11.5 4.5t-4.5 11.5v336q0 13 -9.5 22.5t-22.5 9.5zM128 320q0 -13 9.5 -22.5t22.5 -9.5h96q13 0 22.5 9.5t9.5 22.5t-9.5 22.5
t-22.5 9.5h-96q-13 0 -22.5 -9.5t-9.5 -22.5zM224 256q-13 0 -22.5 -9.5t-9.5 -22.5t9.5 -22.5t22.5 -9.5h128q13 0 22.5 9.5t9.5 22.5t-9.5 22.5t-22.5 9.5h-128zM384 160q-13 0 -22.5 -9.5t-9.5 -22.5t9.5 -22.5t22.5 -9.5h64q13 0 22.5 9.5t9.5 22.5t-9.5 22.5t-22.5 9.5
h-64z" />
    <glyph glyph-name="clapperboard" unicode="clapperboard" 
d="M448 416h6l-127 -127l-1 -1h-92l127 127l1 1h86zM512 288h-118l104 104q14 -18 14 -40v-64zM294 416l-127 -127l-1 -1h-92l127 127l1 1h92zM64 416h70l-127 -127l-1 -1h-6v64q0 26 19 45t45 19zM512 256v-224q0 -26 -19 -45t-45 -19h-384q-26 0 -45 19t-19 45v224h512z
" />
    <glyph glyph-name="clover" unicode="clover" horiz-adv-x="448" 
d="M173.5 416q25.5 0 43.5 -18l1 -1q6 -6 12 0l1 1q18 18 43.5 18t43.5 -18t18 -43v-5q0 -18 -9 -34l-19 -31q-1 -3 -1 -4.5t2 -3.5q1 -2 3 -2.5t5 1.5l31 19q16 9 34 9h5q25 0 43 -18t18 -43.5t-18 -43.5l-1 -1q-6 -6 0 -12l1 -1q18 -18 18 -43.5t-18 -43.5t-43 -18h-5
q-18 0 -34 9l-31 19q-3 2 -4.5 1.5t-3.5 -2.5q-2 -1 -2 -3t1 -5l19 -31q9 -16 9 -34v-5q0 -25 -18 -43t-43.5 -18t-43.5 18l-1 1q-6 6 -12 0l-1 -1q-18 -18 -43.5 -18t-43.5 18t-18 43v5q0 18 9 34l19 31q2 3 1.5 4.5t-2.5 3.5q-1 2 -3 2.5t-5 -1.5l-31 -19q-16 -9 -34 -9
h-5q-25 0 -43 18t-18 43.5t18 43.5l1 1q6 6 0 12l-1 1q-18 18 -18 43.5t18 43.5t43 18h5q18 0 34 -10l31 -18q3 -2 4.5 -1.5t3.5 2.5q2 1 2.5 3t-1.5 4l-19 32q-9 16 -9 34v5q0 25 18 43t43.5 18z" />
    <glyph glyph-name="code-compare" unicode="code&#x2d;compare" 
d="M320 -40v40h16q53 0 90.5 37.5t37.5 90.5v167q22 9 35 29t13 44q0 33 -23.5 56.5t-56.5 23.5t-56.5 -23.5t-23.5 -56.5q0 -24 13 -44t35 -29v-167q0 -26 -19 -45t-45 -19h-16v40q0 16 -14 22t-26 -4l-80 -72q-8 -7 -8 -18t8 -18l80 -72q11 -10 25.5 -4t14.5 22zM456 368
q0 -10 -7 -17t-17 -7t-17 7t-7 17t7 17t17 7t17 -7t7 -17zM192 424v-40h-16q-53 0 -90.5 -37.5t-37.5 -90.5v-167q-22 -9 -35 -29t-13 -44q0 -33 23.5 -56.5t56.5 -23.5t56.5 23.5t23.5 56.5q0 16 -6 30.5t-17 25.5t-25 17v167q0 26 19 45t45 19h16v-40q0 -16 14 -22t26 4
l80 72q8 7 8 18t-8 18l-80 72q-11 10 -25.5 4t-14.5 -22zM56 16q0 10 7 17t17 7t17 -7t7 -17t-7 -17t-17 -7t-17 7t-7 17z" />
    <glyph glyph-name="code-fork" unicode="code&#x2d;fork" horiz-adv-x="448" 
d="M80 344q-10 0 -17 7t-7 17t7 17t17 7t17 -7t7 -17t-7 -17t-17 -7zM160 368q0 33 -23.5 56.5t-56.5 23.5t-56.5 -23.5t-23.5 -56.5q0 -24 13 -44t35 -29v-39q0 -40 28 -68t68 -28h48v-71q-22 -9 -35 -29t-13 -44q0 -33 23.5 -56.5t56.5 -23.5t56.5 23.5t23.5 56.5
q0 16 -6 30.5t-17 25.5t-25 17v71h48q40 0 68 28t28 68v39q22 9 35 29t13 44q0 33 -23.5 56.5t-56.5 23.5t-56.5 -23.5t-23.5 -56.5q0 -24 13 -44t35 -29v-39q0 -13 -9.5 -22.5t-22.5 -9.5h-160q-13 0 -22.5 9.5t-9.5 22.5v39q22 9 35 29t13 44zM368 344q-10 0 -17 7t-7 17
t7 17t17 7t17 -7t7 -17t-7 -17t-17 -7zM248 16q0 -10 -7 -17t-17 -7t-17 7t-7 17t7 17t17 7t17 -7t7 -17z" />
    <glyph glyph-name="code-pull-request" unicode="code&#x2d;pull&#x2d;request" 
d="M306 446q-14 6 -26 -4l-80 -72q-8 -7 -8 -18t8 -18l80 -72q11 -10 25.5 -4t14.5 22v40h16q26 0 45 -19t19 -45v-167q-22 -9 -35 -29t-13 -44q0 -33 23.5 -56.5t56.5 -23.5t56.5 23.5t23.5 56.5q0 24 -13 44t-35 29v167q0 53 -37.5 90.5t-90.5 37.5h-16v40q0 16 -14 22z
M104 368q0 -10 -7 -17t-17 -7t-17 7t-7 17t7 17t17 7t17 -7t7 -17zM112 295q22 9 35 29t13 44q0 33 -23.5 56.5t-56.5 23.5t-56.5 -23.5t-23.5 -56.5q0 -24 13 -44t35 -29v-206q-22 -9 -35 -29t-13 -44q0 -33 23.5 -56.5t56.5 -23.5t56.5 23.5t23.5 56.5q0 24 -13 44t-35 29
v206zM104 16q0 -10 -7 -17t-17 -7t-17 7t-7 17t7 17t17 7t17 -7t7 -17zM432 -8q-10 0 -17 7t-7 17t7 17t17 7t17 -7t7 -17t-7 -17t-17 -7z" />
    <glyph glyph-name="colon-sign" unicode="colon&#x2d;sign" horiz-adv-x="384" 
d="M255 408l-6 -26q15 -2 28 -6l12 48q3 13 14.5 19.5t24.5 3.5t19.5 -14.5t3.5 -24.5l-15 -60l3 -2q11 -8 13 -21.5t-6 -23.5q-10 -13 -25 -13l-54 -217q18 7 34 19q10 8 23.5 6t21.5 -12.5t6 -24t-13 -21.5q-40 -30 -89 -36l-11 -42q-3 -13 -14.5 -19.5t-24.5 -3.5
t-19.5 14.5t-3.5 24.5l7 28q-14 3 -28 8l-13 -52q-3 -13 -14.5 -19.5t-24.5 -3.5t-19.5 14.5t-3.5 24.5l18 71q-67 57 -67 145q0 68 42.5 120.5t107.5 66.5l11 45q3 13 14.5 19.5t24.5 3.5t19.5 -14.5t3.5 -24.5zM163 305q-30 -17 -48.5 -47t-18.5 -66q0 -39 21 -71zM172 75
q13 -6 28 -9l62 248q-14 5 -29 6z" />
    <glyph glyph-name="cruzeiro-sign" unicode="cruzeiro&#x2d;sign" horiz-adv-x="448" 
d="M96 192q0 -49 26.5 -88.5t69.5 -58.5v83v9v55q0 13 9.5 22.5t22.5 9.5q11 0 20 -7q17 7 35 7q27 0 49 -15l10 -6q11 -8 13.5 -21t-5 -24t-20.5 -13.5t-24 4.5l-10 7q-6 4 -13 4q-9 0 -16 -7t-7 -16v-9v-96q61 0 107 41q9 9 22.5 8t22.5 -11t8 -23t-11 -22
q-63 -57 -149 -57q-93 0 -158.5 65.5t-65.5 158.5t65.5 158.5t158.5 65.5q86 0 149 -57q10 -9 11 -22t-8 -23t-22 -11t-23 8q-46 41 -107 41q-66 0 -113 -47t-47 -113z" />
    <glyph glyph-name="display" unicode="display" horiz-adv-x="576" 
d="M64 448h448q26 0 45 -19t19 -45v-288q0 -26 -19 -45t-45 -19h-176l11 -32h69q13 0 22.5 -9.5t9.5 -22.5t-9.5 -22.5t-22.5 -9.5h-256q-13 0 -22.5 9.5t-9.5 22.5t9.5 22.5t22.5 9.5h69l11 32h-176q-26 0 -45 19t-19 45v288q0 26 19 45t45 19zM512 384h-448v-288h448v288z
" />
    <glyph glyph-name="dong-sign" unicode="dong&#x2d;sign" horiz-adv-x="384" 
d="M288 416q13 0 22.5 -9.5t9.5 -22.5q13 0 22.5 -9.5t9.5 -22.5t-9.5 -22.5t-22.5 -9.5v-160v-96q0 -13 -9.5 -22.5t-22.5 -9.5q-21 0 -29 19q-31 -19 -67 -19q-53 0 -90.5 37.5t-37.5 90.5t37.5 90.5t90.5 37.5q35 0 64 -17v49h-32q-13 0 -22.5 9.5t-9.5 22.5t9.5 22.5
t22.5 9.5h32q0 13 9.5 22.5t22.5 9.5zM128 160q0 -37 32 -55q15 -9 32 -9t32 9q32 18 32 55t-32 55q-15 9 -32 9t-32 -9q-32 -18 -32 -55zM32 0h320q13 0 22.5 -9.5t9.5 -22.5t-9.5 -22.5t-22.5 -9.5h-320q-13 0 -22.5 9.5t-9.5 22.5t9.5 22.5t22.5 9.5z" />
    <glyph glyph-name="elevator" unicode="elevator" 
d="M133 443q4 5 11 5t11 -5l64 -64q8 -7 4 -17t-15 -10h-128q-11 0 -15 10t4 17zM64 320h384q26 0 45 -19t19 -45v-256q0 -26 -19 -45t-45 -19h-384q-26 0 -45 19t-19 45v256q0 26 19 45t45 19zM160 224q-28 0 -41.5 -24t0 -48t41.5 -24t41.5 24t0 48t-41.5 24zM80 48v-16
q0 -13 9.5 -22.5t22.5 -9.5h96q13 0 22.5 9.5t9.5 22.5v16q0 20 -14 34t-34 14h-64q-20 0 -34 -14t-14 -34zM272 48v-16q0 -13 9.5 -22.5t22.5 -9.5h96q13 0 22.5 9.5t9.5 22.5v16q0 20 -14 34t-34 14h-64q-20 0 -34 -14t-14 -34zM304 176q0 -28 24 -41.5t48 0t24 41.5
t-24 41.5t-48 0t-24 -41.5zM357 357l-64 64q-8 7 -4 17t15 10h128q11 0 15 -10t-4 -17l-64 -64q-4 -5 -11 -5t-11 5z" />
    <glyph glyph-name="filter-circle-xmark" unicode="filter&#x2d;circle&#x2d;xmark" horiz-adv-x="576" 
d="M4 425q-11 -23 5 -42l183 -224v-79q0 -16 13 -26l64 -48q2 -1 4 -3q-17 37 -17 77q0 63 40 111.5t100 60.5l107 131q16 19 5 42t-36 23h-432q-25 0 -36 -23zM432 224q-39 0 -72 -19.5t-52.5 -52.5t-19.5 -72t19.5 -72t52.5 -52.5t72 -19.5t72 19.5t52.5 52.5t19.5 72
t-19.5 72t-52.5 52.5t-72 19.5zM491 117l-36 -37l36 -37q5 -4 5 -11t-4.5 -11.5t-11.5 -4.5t-11 5l-37 36l-37 -36q-4 -5 -11 -5t-11.5 4.5t-4.5 11.5t5 11l36 37l-36 37q-5 4 -5 11t4.5 11.5t11.5 4.5t11 -5l37 -36l37 36q4 5 11 5t11.5 -4.5t4.5 -11.5t-5 -11zM491 117z
" />
    <glyph glyph-name="florin-sign" unicode="florin&#x2d;sign" horiz-adv-x="384" 
d="M315 416h37q13 0 22.5 -9.5t9.5 -22.5t-9.5 -22.5t-22.5 -9.5h-37q-22 0 -30 -20l-45 -108h80q13 0 22.5 -9.5t9.5 -22.5t-9.5 -22.5t-22.5 -9.5h-107l-55 -133q-11 -27 -35.5 -43t-53.5 -16h-37q-13 0 -22.5 9.5t-9.5 22.5t9.5 22.5t22.5 9.5h37q22 0 30 20l45 108h-80
q-13 0 -22.5 9.5t-9.5 22.5t9.5 22.5t22.5 9.5h107l55 133q7 18 20.5 31t31 20.5t37.5 7.5z" />
    <glyph glyph-name="folder-closed" unicode="folder&#x2d;closed" 
d="M448 -32q26 0 45 19t19 45v224h-512v-224q0 -26 19 -45t45 -19h384zM512 288q0 26 -19 45t-45 19h-160q-16 0 -26 13l-19 25q-19 26 -51 26h-128q-26 0 -45 -19t-19 -45v-64h512z" />
    <glyph glyph-name="franc-sign" unicode="franc&#x2d;sign" horiz-adv-x="320" 
d="M80 416h208q13 0 22.5 -9.5t9.5 -22.5t-9.5 -22.5t-22.5 -9.5h-176v-96h144q13 0 22.5 -9.5t9.5 -22.5t-9.5 -22.5t-22.5 -9.5h-144v-64h80q13 0 22.5 -9.5t9.5 -22.5t-9.5 -22.5t-22.5 -9.5h-80v-64q0 -13 -9.5 -22.5t-22.5 -9.5t-22.5 9.5t-9.5 22.5v64h-16
q-13 0 -22.5 9.5t-9.5 22.5t9.5 22.5t22.5 9.5h16v96v160q0 13 9.5 22.5t22.5 9.5z" />
    <glyph glyph-name="guarani-sign" unicode="guarani&#x2d;sign" horiz-adv-x="384" 
d="M192 448q13 0 22.5 -9.5t9.5 -22.5v-35q59 -10 102 -52q10 -9 10 -22.5t-9 -23t-22.5 -9.5t-22.5 9q-25 24 -58 33v-92h128q13 0 22.5 -9.5t9.5 -22.5q0 -71 -45.5 -124.5t-114.5 -64.5v-35q0 -13 -9.5 -22.5t-22.5 -9.5t-22.5 9.5t-9.5 22.5v35q-69 11 -114.5 64.5
t-45.5 124.5t45.5 124.5t114.5 64.5v35q0 13 9.5 22.5t22.5 9.5zM160 316q-42 -11 -69 -45.5t-27 -78.5t27 -78.5t69 -45.5v248zM224 68q34 9 58.5 33.5t33.5 58.5h-92v-92z" />
    <glyph glyph-name="gun" unicode="gun" horiz-adv-x="576" 
d="M528 392v-8h16q13 0 22.5 -9.5t9.5 -22.5v-80q0 -13 -9.5 -22.5t-22.5 -9.5h-67l-22 -23q-10 -9 -23 -9h-31l-27 -75q-6 -17 -20.5 -27t-32.5 -10h-104l-26 -104q-2 -7 -6.5 -12.5t-11 -8.5t-13.5 -3h-96q-16 0 -25.5 12.5t-5.5 27.5l40 160q4 15 -5.5 27.5t-25.5 12.5
h-10q-13 0 -22.5 9.5t-9.5 22.5v112q0 13 9.5 22.5t22.5 9.5h448v8q0 10 7 17t17 7t17 -7t7 -17zM321 144h1q5 0 7 5l21 59h-105l-16 -64h92zM80 320q-7 0 -11.5 -4.5t-4.5 -11.5t4.5 -11.5t11.5 -4.5h384q7 0 11.5 4.5t4.5 11.5t-4.5 11.5t-11.5 4.5h-384z" />
    <glyph glyph-name="hands-clapping" unicode="hands&#x2d;clapping" 
d="M336 432q0 7 -4.5 11.5t-11.5 4.5t-11.5 -4.5t-4.5 -11.5v-64q0 -7 4.5 -11.5t11.5 -4.5t11.5 4.5t4.5 11.5v64zM237 425q-3 5 -9.5 6.5t-12.5 -2.5q-13 -9 -4 -22l32 -48q3 -5 9.5 -6.5t12.5 2.5q13 9 4 22zM135 329q-7 -7 -7 -17t7 -17l93 -93q11 -11 0 -22t-22 0
l-117 117q-7 7 -17 7t-17 -7t-7 -17t7 -17l117 -117q11 -11 0 -22t-22 0l-93 93q-7 7 -17 7t-17 -7t-7 -17t7 -17l93 -93q11 -11 0 -22t-22 0l-53 53q-7 7 -17 7t-17 -7t-7 -17t7 -17l100 -100q39 -39 94.5 -46t103.5 22q37 22 58 59.5t21 79.5v154q0 13 -9.5 22.5
t-22.5 9.5t-22.5 -9.5t-9.5 -22.5v-39q0 -11 -10 -15t-17 3l-124 124q-7 7 -17 7t-17 -7zM433 -37q37 22 58 59.5t21 79.5v154q0 13 -9.5 22.5t-22.5 9.5t-22.5 -9.5t-9.5 -22.5v-40q0 -6 -5 -10.5t-11 -5.5v-98q0 -47 -20 -89.5t-57 -72.5q42 2 78 23zM424.5 429.5
q-13.5 8.5 -21.5 -4.5l-32 -48q-9 -14 4.5 -22.5t21.5 4.5l32 48q9 14 -4.5 22.5zM425 429z" />
    <glyph glyph-name="house-user" unicode="house&#x2d;user" horiz-adv-x="576" 
d="M576 192q1 14 -11 24l-256 225q-8 7 -21 7q-14 0 -22 -8l-256 -224q-10 -10 -10 -24q0 -13 9 -22.5t23 -9.5h32v-160q0 -27 19 -45.5t45 -18.5h320q27 0 46 19t18 45v160h32q13 0 22.5 9.5t9.5 22.5zM352 224q0 -37 -32 -55.5t-64 0t-32 55.5t32 55.5t64 0t32 -55.5z
M256 128h64q33 0 56.5 -23.5t23.5 -56.5q0 -7 -4.5 -11.5t-11.5 -4.5h-192q-7 0 -11.5 4.5t-4.5 11.5q0 33 23.5 56.5t56.5 23.5z" />
    <glyph glyph-name="indian-rupee-sign" unicode="indian&#x2d;rupee&#x2d;sign" horiz-adv-x="320" 
d="M0 384q0 -13 9.5 -22.5t22.5 -9.5h64h16q24 0 44 -13t29 -35h-153q-13 0 -22.5 -9.5t-9.5 -22.5t9.5 -22.5t22.5 -9.5h153q-6 -14 -17 -25t-25.5 -17t-30.5 -6h-80q-10 0 -18.5 -6t-11.5 -16q-8 -23 11 -36l224 -160q11 -8 24 -5.5t21 13t5.5 23.5t-12.5 21l-145 103
q45 6 78.5 36.5t43.5 74.5h36q13 0 22.5 9.5t9.5 22.5t-9.5 22.5t-22.5 9.5h-36q-5 26 -20 48h56q13 0 22.5 9.5t9.5 22.5t-9.5 22.5t-22.5 9.5h-176h-16h-64q-13 0 -22.5 -9.5t-9.5 -22.5z" />
    <glyph glyph-name="kip-sign" unicode="kip&#x2d;sign" horiz-adv-x="384" 
d="M341 360l-159 -136h170q13 0 22.5 -9.5t9.5 -22.5t-9.5 -22.5t-22.5 -9.5h-170l159 -136q10 -8 11 -21.5t-7.5 -23.5t-22 -11t-23.5 8l-171 146v-122q0 -13 -9.5 -22.5t-22.5 -9.5t-22.5 9.5t-9.5 22.5v160h-32q-13 0 -22.5 9.5t-9.5 22.5t9.5 22.5t22.5 9.5h32v160
q0 13 9.5 22.5t22.5 9.5t22.5 -9.5t9.5 -22.5v-122l171 146q10 9 23.5 8t22 -11t7.5 -23.5t-11 -21.5z" />
    <glyph glyph-name="lari-sign" unicode="lari&#x2d;sign" horiz-adv-x="384" 
d="M144 416q-13 0 -22.5 -9.5t-9.5 -22.5v-49q-50 -23 -81 -70.5t-31 -104.5q0 -73 49 -128h-17q-13 0 -22.5 -9.5t-9.5 -22.5t9.5 -22.5t22.5 -9.5h160h160q13 0 22.5 9.5t9.5 22.5t-9.5 22.5t-22.5 9.5h-160q-53 0 -90.5 37.5t-37.5 90.5q0 62 48 100v-68q0 -13 9.5 -22.5
t22.5 -9.5t22.5 9.5t9.5 22.5v95q8 1 16.5 1t15.5 -1v-95q0 -13 9.5 -22.5t22.5 -9.5t22.5 9.5t9.5 22.5v68q36 -29 46 -74q1 -7 4.5 -12t8.5 -8.5t11.5 -5t12.5 0.5q13 2 20.5 13t4.5 24q-9 46 -38 82t-70 55v49q0 13 -9.5 22.5t-22.5 9.5t-22.5 -9.5t-9.5 -22.5v-33
q-7 1 -16 1q-7 0 -16 -1v33q0 13 -9.5 22.5t-22.5 9.5z" />
    <glyph glyph-name="litecoin-sign" unicode="litecoin&#x2d;sign" horiz-adv-x="384" 
d="M128 384v-131l119 34q7 2 13 1t11.5 -4t9.5 -8t6 -11q3 -13 -3 -24.5t-19 -15.5l-137 -39v-154h224q13 0 22.5 -9.5t9.5 -22.5t-9.5 -22.5t-22.5 -9.5h-256q-13 0 -22.5 9.5t-9.5 22.5v168l-23 -7q-13 -3 -24.5 3t-15 19t2.5 24.5t19 15.5l41 11v150q0 13 9.5 22.5
t22.5 9.5t22.5 -9.5t9.5 -22.5z" />
    <glyph glyph-name="manat-sign" unicode="manat&#x2d;sign" horiz-adv-x="384" 
d="M192 416q13 0 22.5 -9.5t9.5 -22.5v-35q69 -11 114.5 -64.5t45.5 -124.5v-160q0 -13 -9.5 -22.5t-22.5 -9.5t-22.5 9.5t-9.5 22.5v160q0 44 -27 78.5t-69 45.5v-284q0 -13 -9.5 -22.5t-22.5 -9.5t-22.5 9.5t-9.5 22.5v284q-42 -11 -69 -45.5t-27 -78.5v-160
q0 -13 -9.5 -22.5t-22.5 -9.5t-22.5 9.5t-9.5 22.5v160q0 71 45.5 124.5t114.5 64.5v35q0 13 9.5 22.5t22.5 9.5z" />
    <glyph glyph-name="mask-face" unicode="mask&#x2d;face" horiz-adv-x="640" 
d="M320 384q42 0 76 -23l38 -25q24 -16 53 -16h9h16h72q23 0 39.5 -16.5t16.5 -39.5v-85q0 -41 -25.5 -73.5t-65.5 -42.5l-108 -27q-55 -36 -121 -36t-121 36l-108 27q-40 10 -65.5 42.5t-25.5 73.5v85q0 23 16.5 39.5t39.5 16.5h72h16h9q29 0 54 16l37 25q34 23 76 23z
M132 102q-36 55 -36 122v48h-40q-8 0 -8 -8v-85q0 -25 15 -44.5t40 -25.5zM537 109q24 6 39.5 25.5t15.5 44.5v85q0 8 -8 8h-40v-48q0 -67 -36 -122zM192 240q0 -7 4.5 -11.5t11.5 -4.5h224q7 0 11.5 4.5t4.5 11.5t-4.5 11.5t-11.5 4.5h-224q-7 0 -11.5 -4.5t-4.5 -11.5z
M208 192q-7 0 -11.5 -4.5t-4.5 -11.5t4.5 -11.5t11.5 -4.5h224q7 0 11.5 4.5t4.5 11.5t-4.5 11.5t-11.5 4.5h-224zM224 112q0 -7 4.5 -11.5t11.5 -4.5h160q7 0 11.5 4.5t4.5 11.5t-4.5 11.5t-11.5 4.5h-160q-7 0 -11.5 -4.5t-4.5 -11.5z" />
    <glyph glyph-name="mill-sign" unicode="mill&#x2d;sign" horiz-adv-x="384" 
d="M302 405l-19 -53q43 -5 72 -37t29 -75v-208q0 -13 -9.5 -22.5t-22.5 -9.5t-22.5 9.5t-9.5 22.5v208q0 20 -14 34t-34 14q-6 0 -12 -1l-36 -100v-155q0 -13 -9.5 -22.5t-22.5 -9.5q-19 0 -28 17l-22 -60q-4 -12 -16 -18t-24.5 -1.5t-18.5 16.5t-1 25l78 219v42
q0 20 -14 34t-34 14t-34 -14t-14 -34v-208q0 -13 -9.5 -22.5t-22.5 -9.5t-22.5 9.5t-9.5 22.5v208v80q0 13 9.5 22.5t22.5 9.5q17 0 26 -14q25 14 54 14q47 0 80 -34q7 8 16 14l34 95q4 12 16 18t24.5 1.5t18.5 -16.5t1 -25zM302 405z" />
    <glyph glyph-name="money-bills" unicode="money&#x2d;bills" horiz-adv-x="640" 
d="M96 352q0 26 19 45t45 19h416q26 0 45 -19t19 -45v-224q0 -26 -19 -45t-45 -19h-416q-26 0 -45 19t-19 45v224zM160 192v-64h64q0 26 -19 45t-45 19zM224 352h-64v-64q26 0 45 19t19 45zM576 192q-26 0 -45 -19t-19 -45h64v64zM512 352q0 -26 19 -45t45 -19v64h-64z
M288 240q0 -46 40 -69t80 0t40 69t-40 69q-12 7 -26 9.5t-28 0t-26 -9.5q-40 -23 -40 -69zM48 328v-240q0 -30 21 -51t51 -21h400q10 0 17 -7t7 -17t-7 -17t-17 -7h-400q-50 0 -85 35t-35 85v240q0 10 7 17t17 7t17 -7t7 -17z" />
    <glyph glyph-name="naira-sign" unicode="naira&#x2d;sign" horiz-adv-x="448" 
d="M123 402l139 -210h58v192q0 13 9.5 22.5t22.5 9.5t22.5 -9.5t9.5 -22.5v-192h32q13 0 22.5 -9.5t9.5 -22.5t-9.5 -22.5t-22.5 -9.5h-32v-128q0 -24 -22.5 -31t-36.5 13l-97 146h-100v-128q0 -13 -9.5 -22.5t-22.5 -9.5t-22.5 9.5t-9.5 22.5v128h-32q-13 0 -22.5 9.5
t-9.5 22.5t9.5 22.5t22.5 9.5h32v192q0 24 22.5 30.5t36.5 -12.5zM305 128l15 -22v22h-15zM186 192l-58 86v-86h58z" />
    <glyph glyph-name="notdef" unicode="notdef" horiz-adv-x="384" 
d="M64 58v268l90 -134zM102 0l90 134l90 -134h-180zM230 192l90 134v-268zM282 384l-90 -134l-90 134h180zM0 400v-416q0 -20 14 -34t34 -14h288q20 0 34 14t14 34v416q0 20 -14 34t-34 14h-288q-20 0 -34 -14t-14 -34z" />
    <glyph glyph-name="panorama" unicode="panorama" horiz-adv-x="640" 
d="M46 416q7 0 14 -2q11 -4 28.5 -8.5t52 -12t82.5 -12.5t97 -5q148 0 260 38q7 2 14 2q19 0 32.5 -13.5t13.5 -32.5v-356q0 -19 -13.5 -32.5t-32.5 -13.5q-7 0 -14 2q-17 6 -42.5 13t-89.5 16t-128 9q-148 0 -260 -38q-7 -2 -14 -2q-19 0 -32.5 13.5t-13.5 32.5v356
q0 19 13.5 32.5t32.5 13.5zM96 288q0 -13 9.5 -22.5t22.5 -9.5t22.5 9.5t9.5 22.5t-9.5 22.5t-22.5 9.5t-22.5 -9.5t-9.5 -22.5zM368 288q-13 0 -20 -11l-87 -127l-26 33q-7 9 -18.5 9t-19.5 -9l-69 -87q-10 -13 -2 -27t25 -11q83 14 169 14q85 0 169 -14q15 -3 23.5 10.5
t-0.5 26.5l-124 183q-7 10 -20 10zM368 288z" />
    <glyph glyph-name="peseta-sign" unicode="peseta&#x2d;sign" horiz-adv-x="384" 
d="M64 416h128q58 0 102 -36.5t55 -91.5h3q13 0 22.5 -9.5t9.5 -22.5t-9.5 -22.5t-22.5 -9.5h-3q-11 -55 -55 -91.5t-102 -36.5h-96v-96q0 -13 -9.5 -22.5t-22.5 -9.5t-22.5 9.5t-9.5 22.5v128v96q-13 0 -22.5 9.5t-9.5 22.5t9.5 22.5t22.5 9.5v96q0 13 9.5 22.5t22.5 9.5z
M282 288q-6 19 -19.5 33.5t-31.5 22.5t-39 8h-96v-64h186zM96 224v-64h96q31 0 55.5 18t34.5 46h-186z" />
    <glyph glyph-name="peso-sign" unicode="peso&#x2d;sign" horiz-adv-x="384" 
d="M64 416h112q34 0 64.5 -12t54 -33.5t38.5 -50.5h19q13 0 22.5 -9.5t9.5 -22.5t-9.5 -22.5t-22.5 -9.5h-1q1 -7 1 -16t-1 -16h1q13 0 22.5 -9.5t9.5 -22.5t-9.5 -22.5t-22.5 -9.5h-19q-22 -43 -64 -69.5t-93 -26.5h-80v-64q0 -13 -9.5 -22.5t-22.5 -9.5t-22.5 9.5
t-9.5 22.5v96v64q-13 0 -22.5 9.5t-9.5 22.5t9.5 22.5t22.5 9.5v32q-13 0 -22.5 9.5t-9.5 22.5t9.5 22.5t22.5 9.5v64q0 13 9.5 22.5t22.5 9.5zM254 320q-32 32 -78 32h-80v-32h158zM96 256v-32h191q1 8 1 16t-1 16h-191zM254 160h-158v-32h80q46 0 78 32z" />
    <glyph glyph-name="plane-up" unicode="plane&#x2d;up" 
d="M192 354v-66l-178 -118q-14 -10 -14 -27v-57q0 -8 6.5 -13t14.5 -2l171 57v-80l-58 -43q-6 -5 -6 -13v-42q0 -6 4 -10t10 -4h4l110 32l110 -32h4q6 0 10 4t4 10v42q0 8 -6 13l-58 43v80l171 -57q5 -2 10 0t8 6t3 9v57q0 17 -14 27l-178 118v66q0 18 -8 39.5t-23.5 38
t-32.5 16.5q-24 0 -44 -32.5t-20 -61.5z" />
    <glyph glyph-name="rupiah-sign" unicode="rupiah&#x2d;sign" 
d="M0 384v-224v-160q0 -13 9.5 -22.5t22.5 -9.5t22.5 9.5t9.5 22.5v128h42l56 -140q5 -12 17.5 -17.5t24.5 -0.5t17.5 17.5t0.5 24.5l-52 128q39 17 62.5 53t23.5 79q0 60 -42 102t-102 42h-80q-13 0 -22.5 -9.5t-9.5 -22.5zM64 192v160h48q33 0 56.5 -23.5t23.5 -56.5
t-23.5 -56.5t-56.5 -23.5h-48zM320 288q-13 0 -22.5 -9.5t-9.5 -22.5v-160v-128q0 -13 9.5 -22.5t22.5 -9.5t22.5 9.5t9.5 22.5v96h48q46 0 79 33t33 79t-33 79t-79 33h-80zM400 128h-48v96h48q20 0 34 -14t14 -34t-14 -34t-34 -14z" />
    <glyph glyph-name="stairs" unicode="stairs" horiz-adv-x="576" 
d="M384 384v-96h-96q-13 0 -22.5 -9.5t-9.5 -22.5v-96h-96q-13 0 -22.5 -9.5t-9.5 -22.5v-96h-96q-13 0 -22.5 -9.5t-9.5 -22.5t9.5 -22.5t22.5 -9.5h128q13 0 22.5 9.5t9.5 22.5v96h96q13 0 22.5 9.5t9.5 22.5v96h96q13 0 22.5 9.5t9.5 22.5v96h96q13 0 22.5 9.5t9.5 22.5
t-9.5 22.5t-22.5 9.5h-128q-13 0 -22.5 -9.5t-9.5 -22.5z" />
    <glyph glyph-name="timeline" unicode="timeline" horiz-adv-x="640" 
d="M128 376q-10 0 -17 -7t-7 -17t7 -17t17 -7t17 7t7 17t-7 17t-17 7zM160 279v-55h320v55q-22 9 -35 29t-13 44q0 33 23.5 56.5t56.5 23.5t56.5 -23.5t23.5 -56.5q0 -24 -13 -44t-35 -29v-55h64q13 0 22.5 -9.5t9.5 -22.5t-9.5 -22.5t-22.5 -9.5h-256v-55q22 -9 35 -29
t13 -44q0 -33 -23.5 -56.5t-56.5 -23.5t-56.5 23.5t-23.5 56.5q0 24 13 44t35 29v55h-256q-13 0 -22.5 9.5t-9.5 22.5t9.5 22.5t22.5 9.5h64v55q-22 9 -35 29t-13 44q0 33 23.5 56.5t56.5 23.5t56.5 -23.5t23.5 -56.5q0 -24 -13 -44t-35 -29zM488 352q0 -10 7 -17t17 -7
t17 7t7 17t-7 17t-17 7t-17 -7t-7 -17zM320 56q-10 0 -17 -7t-7 -17t7 -17t17 -7t17 7t7 17t-7 17t-17 7z" />
    <glyph glyph-name="truck-front" unicode="truck&#x2d;front" 
d="M0 368v-288q0 -40 32 -64v-48q0 -13 9.5 -22.5t22.5 -9.5h32q13 0 22.5 9.5t9.5 22.5v32h256v-32q0 -13 9.5 -22.5t22.5 -9.5h32q13 0 22.5 9.5t9.5 22.5v48q32 24 32 64v288q0 33 -23.5 56.5t-56.5 23.5h-352q-33 0 -56.5 -23.5t-23.5 -56.5zM130 296q3 10 11.5 17
t19.5 7h190q11 0 19.5 -7t11.5 -17l18 -72h-288zM128 128q0 -13 -9.5 -22.5t-22.5 -9.5t-22.5 9.5t-9.5 22.5t9.5 22.5t22.5 9.5t22.5 -9.5t9.5 -22.5zM416 96q-13 0 -22.5 9.5t-9.5 22.5t9.5 22.5t22.5 9.5t22.5 -9.5t9.5 -22.5t-9.5 -22.5t-22.5 -9.5z" />
    <glyph glyph-name="turkish-lira-sign" unicode="turkish&#x2d;lira&#x2d;sign" horiz-adv-x="384" 
d="M96 416q-9 0 -16 -4.5t-11.5 -11.5t-4.5 -16v-54l-41 -11q-13 -4 -19 -15.5t-2.5 -24t15 -19t24.5 -3.5l23 7v-30l-41 -11q-13 -4 -19 -15.5t-2.5 -24t15 -19t24.5 -3.5l23 7v-168q0 -13 9.5 -22.5t22.5 -9.5h96q77 0 132.5 53t59.5 129v8q1 14 -8 23.5t-22 10.5
q-9 0 -16.5 -3.5t-12.5 -11t-5 -15.5v-8q-3 -51 -40 -86.5t-88 -35.5h-64v154l137 39q13 4 19 15.5t2.5 24.5t-15 19t-24.5 3l-119 -34v29l137 39q13 4 19 15.5t2.5 24.5t-15 19t-24.5 3l-119 -34v35q0 13 -9.5 22.5t-22.5 9.5z" />
    <glyph glyph-name="vault" unicode="vault" horiz-adv-x="576" 
d="M64 448h448q26 0 45 -19t19 -45v-352q0 -26 -19 -45t-45 -19h-16l-16 -32h-64l-16 32h-224l-16 -32h-64l-16 32h-16q-26 0 -45 19t-19 45v352q0 26 19 45t45 19zM224 128q-46 0 -69 40t0 80t69 40t69 -40t0 -80t-69 -40zM224 368q-43 0 -80 -21.5t-58.5 -58.5t-21.5 -80
t21.5 -80t58.5 -58.5t80 -21.5t80 21.5t58.5 58.5t21.5 80t-21.5 80t-58.5 58.5t-80 21.5zM480 227q14 5 23 17.5t9 27.5q0 20 -14 34t-34 14t-34 -14t-14 -34q0 -15 9 -27.5t23 -17.5v-115q0 -7 4.5 -11.5t11.5 -4.5t11.5 4.5t4.5 11.5v115z" />
    <glyph glyph-name="wand-magic-sparkles" unicode="magic&#x2d;wand&#x2d;sparkles" horiz-adv-x="576" 
d="M235 405l14 38q2 5 7 5t7 -5l14 -38l38 -14q5 -2 5 -7t-5 -7l-38 -14l-14 -38q-2 -5 -7 -5t-7 5l-14 38l-38 14q-5 2 -5 7t5 7zM46 53l381 381q15 14 34.5 14t33.5 -14l35 -35q14 -14 14 -33.5t-14 -33.5l-381 -382q-14 -14 -34 -14t-34 14l-35 35q-14 14 -14 34t14 34z
M485 365l-24 24l-105 -105l24 -24zM8 331l56 21l21 57q3 7 11 7t11 -7l21 -57l57 -21q7 -3 7 -11t-7 -11l-57 -21l-21 -56q-3 -8 -11 -8t-11 8l-21 56l-56 21q-8 3 -8 11t8 11zM360 75l56 21l21 57q3 7 11 7t11 -7l21 -57l57 -21q7 -3 7 -11t-7 -11l-57 -21l-21 -56
q-3 -8 -11 -8t-11 8l-21 56l-56 21q-8 3 -8 11t8 11z" />
    <glyph glyph-name="wheat-awn" unicode="wheat&#x2d;awn" 
d="M505 407l-88 -88q-7 -7 -17 -7t-17 7t-7 17t7 17l88 88q7 7 17 7t17 -7t7 -17t-7 -17zM306 421l11 -12q6 -6 12 -14l46 46q7 7 17 7t17 -7t7 -17t-7 -17l-58 -58q8 -33 -2 -66q31 9 63 2l59 60q7 7 17 7t17 -7t7 -17t-7 -17l-46 -46q8 -6 16 -14l12 -11q4 -5 4 -11.5
t-4 -11.5l-12 -11q-28 -29 -67.5 -29t-68.5 29l-12 12l-32 -32q46 -5 78 -37l12 -11q4 -5 4 -11.5t-4 -11.5l-12 -11q-28 -28 -67.5 -28t-67.5 28l-13 12l-31 -32q45 -4 78 -37l11 -11q5 -5 5 -11.5t-5 -11.5l-11 -11q-29 -28 -68.5 -28t-67.5 28l-12 12l-69 -69
q-10 -9 -23 -9t-22.5 9.5t-9.5 22.5t9 23l69 69l-10 10q-28 28 -28 68t28 68l11 11q5 5 11.5 5t11.5 -5l11 -11q31 -31 37 -75l30 30l-10 11q-28 28 -28 67.5t28 68.5l11 11q5 4 11.5 4t11.5 -4l11 -11q31 -32 36 -75l31 30l-11 11q-28 28 -28 67.5t28 67.5l12 12
q5 4 11.5 4t11.5 -4z" />
    <glyph glyph-name="wheelchair-move" unicode="wheelchair&#x2d;move" horiz-adv-x="448" 
d="M320 400q0 -28 24 -41.5t48 0t24 41.5t-24 41.5t-48 0t-24 -41.5zM204 327l43 -20l-55 -54q-15 3 -32 3q-66 0 -113 -47t-47 -113t47 -113t113 -47t113 47t47 113q0 34 -13 64h70l-24 -122q-3 -13 4.5 -24t20.5 -13.5t24 5t13 20.5l29 141q4 22 -10.5 39.5t-36.5 17.5
h-98l38 43q17 18 12 41.5t-27 33.5l-90 43q-44 20 -82 -9l-41 -30q-11 -8 -13 -21.5t6 -24t21.5 -12.5t23.5 6l41 31q8 6 16 2zM160 0q-26 0 -48 13t-35 35q-28 48 0 96q6 11 15 20t20 15t23 9.5t25 3.5q17 0 33 -6t29 -16.5t21 -25.5q28 -48 0 -96q-8 -15 -21 -25.5
t-29 -16.5t-33 -6z" />
    <glyph glyph-name="bangladeshi-taka-sign" unicode="bangladeshi&#x2d;taka&#x2d;sign" horiz-adv-x="384" 
d="M36 416l8 -1q36 -5 60 -32t24 -64v-31h32q13 0 22.5 -9.5t9.5 -22.5t-9.5 -22.5t-22.5 -9.5h-32v-160q0 -13 9.5 -22.5t22.5 -9.5h32q53 0 90.5 37.5t37.5 90.5v32q0 13 -9.5 22.5t-22.5 9.5h-16q-13 0 -22.5 9.5t-9.5 22.5t9.5 22.5t22.5 9.5h16q40 0 68 -28t28 -68v-32
q0 -80 -56 -136t-136 -56h-32q-40 0 -68 28t-28 68v160h-32q-13 0 -22.5 9.5t-9.5 22.5t9.5 22.5t22.5 9.5h32v31q0 13 -8 22t-20 10l-8 1q-13 2 -21 12.5t-6.5 23.5t12 21t23.5 7zM36 416z" />
    <glyph glyph-name="bowl-rice" unicode="bowl&#x2d;rice" 
d="M176 392q0 -10 7 -17t17 -7h16q10 0 17 7t7 17t-7 17t-17 7h-16q-10 0 -17 -7t-7 -17zM200 344q-10 0 -17 -7t-7 -17t7 -17t17 -7h16q10 0 17 7t7 17t-7 17t-17 7h-16zM56 272q-10 0 -17 -7t-7 -17t7 -17t17 -7h16q10 0 17 7t7 17t-7 17t-17 7h-16zM0 165q0 -53 29.5 -95
t77.5 -60l1 -14q2 -12 11 -20t21 -8h232q12 0 21 8t10 20l2 14q48 18 77.5 60t29.5 95q0 11 -8 19t-19 8h-458q-11 0 -19 -8t-8 -19zM224 248q0 -10 7 -17t17 -7h16q10 0 17 7t7 17t-7 17t-17 7h-16q-10 0 -17 -7t-7 -17zM128 248q0 -10 7 -17t17 -7h16q10 0 17 7t7 17
t-7 17t-17 7h-16q-10 0 -17 -7t-7 -17zM104 344q-10 0 -17 -7t-7 -17t7 -17t17 -7h16q10 0 17 7t7 17t-7 17t-17 7h-16zM320 248q0 -10 7 -17t17 -7h16q10 0 17 7t7 17t-7 17t-17 7h-16q-10 0 -17 -7t-7 -17zM296 344q-10 0 -17 -7t-7 -17t7 -17t17 -7h16q10 0 17 7t7 17
t-7 17t-17 7h-16zM416 248q0 -10 7 -17t17 -7h16q10 0 17 7t7 17t-7 17t-17 7h-16q-10 0 -17 -7t-7 -17zM392 344q-10 0 -17 -7t-7 -17t7 -17t17 -7h16q10 0 17 7t7 17t-7 17t-17 7h-16zM296 416q-10 0 -17 -7t-7 -17t7 -17t17 -7h16q10 0 17 7t7 17t-7 17t-17 7h-16z" />
    <glyph glyph-name="person-pregnant" unicode="person&#x2d;pregnant" horiz-adv-x="384" 
d="M192 448q-28 0 -41.5 -24t0 -48t41.5 -24t41.5 24t0 48t-41.5 24zM120 65v-97q0 -13 9.5 -22.5t22.5 -9.5t22.5 9.5t9.5 22.5v96h8h8v-96q0 -13 9.5 -22.5t22.5 -9.5t22.5 9.5t9.5 22.5v96h40h16q13 0 22.5 9.5t9.5 22.5v32q0 23 -10 43t-28 33.5t-40 17.5l-6 33
q-3 17 -13.5 31.5t-25.5 23t-33 10.5h-4h-2h-13h-1q-6 0 -12 -1q-46 -6 -69 -46l-58 -97q-7 -11 -4 -24t14.5 -19.5t24.5 -3.5t19 15l5 7v-55q0 -25 24 -31z" />
    <glyph glyph-name="house-chimney" unicode="house&#x2d;chimney" horiz-adv-x="576" 
d="M544 160h-32l1 -160q0 -3 -1 -8v-16q0 -17 -11.5 -28.5t-28.5 -11.5h-16h-3h-4h-33h-24q-17 0 -28.5 11.5t-11.5 28.5v24v64q0 13 -9.5 22.5t-22.5 9.5h-64q-13 0 -22.5 -9.5t-9.5 -22.5v-64v-24q0 -17 -11.5 -28.5t-28.5 -11.5h-24h-32h-4h-4h-16q-17 0 -28.5 11.5
t-11.5 28.5v112v3v69h-32q-13 0 -22.5 9.5t-9.5 22.5q0 14 10 24l256 224q8 8 22 8q13 0 22 -7l106 -94v37q0 13 9.5 22.5t22.5 9.5h32q13 0 22.5 -9.5t9.5 -22.5v-121l53 -47q12 -10 11 -24q0 -13 -9.5 -22.5t-22.5 -9.5zM544 160z" />
    <glyph glyph-name="house-crack" unicode="house&#x2d;crack" horiz-adv-x="576" 
d="M544 160v1h-32v-161q1 -17 -7.5 -32t-23.5 -23.5t-33 -8.5h-122l-38 64l81 67q6 5 6 12.5t-7 12.5l-117 93q-11 8 -21 -1.5t-2 -20.5l60 -83l-85 -71q-11 -9 -4 -21l31 -52h-102q-26 0 -45 19t-19 45v160h-32q-13 0 -22.5 9.5t-9.5 22.5q0 14 10 24l256 224q8 8 22 8
q13 0 22 -7l255 -225q12 -10 11 -24q0 -13 -9.5 -22.5t-22.5 -9.5zM544 160z" />
    <glyph glyph-name="house-medical" unicode="house&#x2d;medical" horiz-adv-x="576" 
d="M544 160h-32v-160q1 -17 -7.5 -32t-23.5 -23.5t-33 -8.5h-320q-26 0 -45 19t-19 45v160h-32q-13 0 -22.5 9.5t-9.5 22.5q0 14 10 24l256 224q8 8 22 8q13 0 22 -7l255 -225q12 -10 11 -24q0 -13 -9.5 -22.5t-22.5 -9.5zM256 240v-48h-48q-7 0 -11.5 -4.5t-4.5 -11.5v-32
q0 -7 4.5 -11.5t11.5 -4.5h48v-48q0 -7 4.5 -11.5t11.5 -4.5h32q7 0 11.5 4.5t4.5 11.5v48h48q7 0 11.5 4.5t4.5 11.5v32q0 7 -4.5 11.5t-11.5 4.5h-48v48q0 7 -4.5 11.5t-11.5 4.5h-32q-7 0 -11.5 -4.5t-4.5 -11.5z" />
    <glyph glyph-name="cent-sign" unicode="cent&#x2d;sign" horiz-adv-x="384" 
d="M224 448q-13 0 -22.5 -9.5t-9.5 -22.5v-35q-69 -11 -114.5 -64.5t-45.5 -124.5t45.5 -124.5t114.5 -64.5v-35q0 -13 9.5 -22.5t22.5 -9.5t22.5 9.5t9.5 22.5v35q46 7 83 35q11 8 13 21.5t-6 24t-21.5 12.5t-23.5 -6q-34 -26 -77 -26q-53 0 -90.5 37.5t-37.5 90.5
t37.5 90.5t90.5 37.5q43 0 77 -26q10 -8 23.5 -6t21.5 12.5t6 24t-13 21.5q-37 28 -83 35v35q0 13 -9.5 22.5t-22.5 9.5z" />
    <glyph glyph-name="plus-minus" unicode="plus&#x2d;minus" horiz-adv-x="384" 
d="M224 416v-112h112q13 0 22.5 -9.5t9.5 -22.5t-9.5 -22.5t-22.5 -9.5h-112v-112q0 -13 -9.5 -22.5t-22.5 -9.5t-22.5 9.5t-9.5 22.5v112h-112q-13 0 -22.5 9.5t-9.5 22.5t9.5 22.5t22.5 9.5h112v112q0 13 9.5 22.5t22.5 9.5t22.5 -9.5t9.5 -22.5zM0 -32q0 13 9.5 22.5
t22.5 9.5h320q13 0 22.5 -9.5t9.5 -22.5t-9.5 -22.5t-22.5 -9.5h-320q-13 0 -22.5 9.5t-9.5 22.5z" />
    <glyph glyph-name="sailboat" unicode="sailboat" horiz-adv-x="576" 
d="M256 432v-320q0 -7 4.5 -11.5t11.5 -4.5h224q10 0 14.5 8.5t-1.5 16.5l-224 320q-7 10 -18 6.5t-11 -15.5zM212 351.5q-12 3.5 -18 -7.5l-128 -224q-4 -8 0.5 -16t13.5 -8h128q7 0 11.5 4.5t4.5 11.5v224q0 12 -12 15.5zM6 44l4 -15q11 -41 45.5 -67t77.5 -26h310
q43 0 77.5 26t45.5 67l4 15q2 7 -2.5 13.5t-12.5 6.5h-534q-8 0 -12.5 -6.5t-2.5 -13.5zM6 44z" />
    <glyph glyph-name="section" unicode="section" horiz-adv-x="256" 
d="M65 352q-1 -11 2 -19q3 -6 12 -12q14 -10 61 -25h2q54 -18 77 -35q21 -17 31 -39q9 -25 4 -56q-6 -35 -32 -58q19 -15 27 -35q10 -24 5 -54q-8 -50 -58 -71q-41 -18 -97 -9h-1q-17 3 -67 20q-8 2 -9 3q-13 4 -19 16t-1.5 24.5t16 18.5t24.5 1l5 -1.5t7 -2.5
q41 -14 54 -16q38 -6 62 4q18 8 21 24q2 11 -1 18q-2 6 -9 11q-14 10 -60 24l-3 1q-53 16 -76 31q-22 15 -32 35q-12 24 -8 53v2q7 40 41 62q0 1 -0.5 1.5t-1.5 0.5q-21 15 -32 37q-11 24 -8 54l1 1q8 52 58 75q41 18 98 9q29 -5 51 -11q12 -3 18.5 -14.5t3 -24.5t-15 -19.5
t-24.5 -2.5q-19 5 -44 9q-37 6 -61 -5q-18 -8 -21 -25zM142 143l12 3q33 6 37 31q2 13 -1 21q-3 6 -10 12q-6 5 -16 9l-17 3q-38 6 -62 -4q-17 -8 -20 -23q-1 -10 2 -16t11 -11q14 -10 62 -24h1q1 0 1 -1zM142 143z" />
    <glyph glyph-name="shrimp" unicode="shrimp" 
d="M64 416h400q7 0 11.5 -4.5t4.5 -11.5t-4.5 -11.5t-11.5 -4.5h-400q-13 0 -22.5 -9.5t-9.5 -22.5t9.5 -22.5t22.5 -9.5h25h175h24v-192h-56q-67 0 -115.5 46.5t-51.5 113.5h-1q-26 0 -45 19t-19 45t19 45t45 19zM224 -8q0 9 6 15.5t14 8.5l-4 1q-9 4 -13.5 13t-1 18
t12.5 13.5t18 1.5l64 -23v-72h-72q-10 0 -17 7t-7 17zM352 -31v70q5 1 10 4l86 -35q-42 -34 -96 -39zM473 33l-91 36q2 7 2 13t-1 11l125 87q4 -18 4 -36q0 -62 -39 -111zM336 320q54 0 98 -30t64 -78l-133 -92q-12 8 -27 8h-18v192h16zM168 256q0 -10 7 -17t17 -7t17 7
t7 17t-7 17t-17 7t-17 -7t-7 -17z" />
    <glyph glyph-name="brazilian-real-sign" unicode="brazilian&#x2d;real&#x2d;sign" 
d="M400 448q-13 0 -22.5 -9.5t-9.5 -22.5v-22q-35 -12 -57.5 -42.5t-22.5 -69.5q0 -24 9 -45.5t26 -38t39 -25.5l52 -21q15 -6 24.5 -20t9.5 -30v-3q0 -21 -15 -36t-36 -15q-19 0 -36 11l-23 16q-11 7 -24 4.5t-20.5 -13.5t-5 -24t13.5 -21l24 -15q19 -13 42 -19v-19
q0 -13 9.5 -22.5t22.5 -9.5t22.5 9.5t9.5 22.5v21q35 11 57.5 41.5t22.5 67.5v4q0 24 -9 45.5t-26 38t-39 25.5l-52 21q-10 4 -18 11.5t-12 17.5t-4 21q0 22 15.5 38t38.5 16h1q18 0 32 -8l11 -5q12 -6 24.5 -1.5t18.5 16.5t1.5 24.5t-16.5 18.5l-10 5q-17 8 -36 12v18
q0 13 -9.5 22.5t-22.5 9.5zM0 384v-224v-160q0 -13 9.5 -22.5t22.5 -9.5t22.5 9.5t9.5 22.5v128h42l56 -140q5 -12 17.5 -17.5t24.5 -0.5t17.5 17.5t0.5 24.5l-52 128q39 17 62.5 53t23.5 79q0 60 -42 102t-102 42h-80q-13 0 -22.5 -9.5t-9.5 -22.5zM64 192v160h48
q33 0 56.5 -23.5t23.5 -56.5t-23.5 -56.5t-56.5 -23.5h-48z" />
    <glyph glyph-name="chart-simple" unicode="chart&#x2d;simple" horiz-adv-x="448" 
d="M160 368v-352q0 -20 14 -34t34 -14h32q20 0 34 14t14 34v352q0 20 -14 34t-34 14h-32q-20 0 -34 -14t-14 -34zM0 176v-160q0 -20 14 -34t34 -14h32q20 0 34 14t14 34v160q0 20 -14 34t-34 14h-32q-20 0 -34 -14t-14 -34zM368 352q-20 0 -34 -14t-14 -34v-288
q0 -20 14 -34t34 -14h32q20 0 34 14t14 34v288q0 20 -14 34t-34 14h-32z" />
    <glyph glyph-name="diagram-next" unicode="diagram&#x2d;next" 
d="M512 288v64q0 26 -19 45t-45 19h-384q-26 0 -45 -19t-19 -45v-64q0 -26 19 -45t45 -19h168v-64h-46q-16 0 -22 -15t5 -26l70 -70q7 -7 17 -7t17 7l70 70q11 11 5 26t-22 15h-46v64h168q26 0 45 19t19 45zM448 32h-147l-5 -6q-17 -16 -40 -16t-40 16l-5 6h-147v64h83h-1
q-28 28 -11 64h-71q-26 0 -45 -19t-19 -45v-64q0 -26 19 -45t45 -19h384q26 0 45 19t19 45v64q0 26 -19 45t-45 19h-71q17 -36 -11 -64h-1h83v-64z" />
    <glyph glyph-name="diagram-predecessor" unicode="diagram&#x2d;predecessor" 
d="M448 32h-384v64h384v-64zM448 -32q26 0 45 19t19 45v64q0 26 -19 45t-45 19h-384q-26 0 -45 -19t-19 -45v-64q0 -26 19 -45t45 -19h384zM288 288v64h80q7 0 11.5 -4.5t4.5 -11.5v-16h-38q-16 0 -22 -15t5 -26l70 -70q7 -7 17 -7t17 7l70 70q11 11 5 26t-22 15h-38v16
q0 33 -23.5 56.5t-56.5 23.5h-144h-16h-144q-26 0 -45 -19t-19 -45v-64q0 -26 19 -45t45 -19h160q26 0 45 19t19 45zM288 288z" />
    <glyph glyph-name="diagram-successor" unicode="diagram&#x2d;successor" 
d="M512 32q0 -26 -19 -45t-45 -19h-384q-26 0 -45 19t-19 45v64q0 26 19 45t45 19h384q26 0 45 -19t19 -45v-64zM64 288h160v64h-16h-144v-64zM288 288q0 -26 -19 -45t-45 -19h-160q-26 0 -45 19t-19 45v64q0 26 19 45t45 19h144h16h144q33 0 56.5 -23.5t23.5 -56.5v-16h38
q16 0 22 -15t-5 -26l-70 -70q-7 -7 -17 -7t-17 7l-70 70q-11 11 -5 26t22 15h38v16q0 7 -4.5 11.5t-11.5 4.5h-80v-64z" />
    <glyph glyph-name="earth-oceania" unicode="earth&#x2d;oceania" 
d="M256 -64q-69 0 -128 34.5t-93.5 93.5t-34.5 128t34.5 128t93.5 93.5t128 34.5t128 -34.5t93.5 -93.5t34.5 -128t-34.5 -128t-93.5 -93.5t-128 -34.5zM209 91q3 -2 7 -4l25 -16q11 -7 24 -7q21 0 34 17l12 15q9 12 9 26.5t-9 25.5l-18 23q-7 9 -11 20l-10 26q-3 7 -10 7
q-6 0 -9 -4l-11 -15q-7 -10 -20 -8q-5 1 -8 5l-5 7q-11 15 -30 15t-31 -15l-5 -7q-3 -3 -6 -5l-35 -17q-16 -7 -21.5 -23.5t2.5 -31.5l4 -6q6 -13 19.5 -18.5t27.5 -0.5l16 4q10 4 20 0zM274 305q-15 16 -36 11l-39 -7q-11 -3 -12.5 -14.5t9.5 -16.5l43 -19q7 -3 16 -3h30
q10 0 14.5 10t-3.5 17zM248 16q0 -7 4.5 -11.5t11.5 -4.5h16q7 0 11.5 4.5t4.5 11.5t-4.5 11.5t-11.5 4.5h-16q-7 0 -11.5 -4.5t-4.5 -11.5zM431 149q-2 6 -8 9t-12 1t-9 -8t-1 -12l8 -24q2 -6 8 -9t12 -1t9 8t1 12zM411 69q5 4 5 11t-4.5 11.5t-11.5 4.5t-11 -5l-32 -32
q-5 -4 -5 -11t4.5 -11.5t11.5 -4.5t11 5z" />
    <glyph glyph-name="bug-slash" unicode="bug&#x2d;slash" horiz-adv-x="640" 
d="M39 443l201 -158q12 3 24 3h112q25 0 48 -11q1 1 1 2l64 64q10 9 23 9t22.5 -9.5t9.5 -22.5t-9 -23l-64 -64q-1 0 -2 -1q9 -19 11 -40h64q13 0 22.5 -9.5t9.5 -22.5t-9.5 -22.5t-22.5 -9.5h-64q0 -15 -3 -29l154 -120q8 -6 9 -16t-5 -18t-16 -9t-18 5l-592 464
q-8 6 -9 16t5 18t16 9t18 -5zM320 448q26 0 48 -13t35 -35t13 -48v-4q0 -11 -8.5 -19.5t-19.5 -8.5h-136q-11 0 -19.5 8.5t-8.5 19.5v4q0 40 28 68t68 28zM160 192q1 15 7 29l137 -109v-143q-51 5 -90 39l-63 -63q-10 -9 -23 -9t-22.5 9.5t-9.5 22.5t9 23l64 64l6 4
q-15 33 -15 69h-64q-13 0 -22.5 9.5t-9.5 22.5t9.5 22.5t22.5 9.5h64zM336 -31v118l95 -74q-40 -39 -95 -44z" />
    <glyph glyph-name="file-circle-plus" unicode="file&#x2d;circle&#x2d;plus" horiz-adv-x="576" 
d="M0 384v-384q0 -26 19 -45t45 -19h256q5 0 10 1q-34 24 -54 61.5t-20 81.5q0 60 36 107t92 62v39h-128q-13 0 -22.5 9.5t-9.5 22.5v128h-160q-26 0 -45 -19t-19 -45zM384 320l-128 128v-128h128zM432 224q-39 0 -72 -19.5t-52.5 -52.5t-19.5 -72t19.5 -72t52.5 -52.5
t72 -19.5t72 19.5t52.5 52.5t19.5 72t-19.5 72t-52.5 52.5t-72 19.5zM448 144v-48h48q7 0 11.5 -4.5t4.5 -11.5t-4.5 -11.5t-11.5 -4.5h-48v-48q0 -7 -4.5 -11.5t-11.5 -4.5t-11.5 4.5t-4.5 11.5v48h-48q-7 0 -11.5 4.5t-4.5 11.5t4.5 11.5t11.5 4.5h48v48q0 7 4.5 11.5
t11.5 4.5t11.5 -4.5t4.5 -11.5z" />
    <glyph glyph-name="shop-lock" unicode="shop&#x2d;lock" horiz-adv-x="640" 
d="M37 256q-10 0 -18.5 5t-13.5 13.5t-5 18.5q0 11 6 20l76 114q14 21 40 21h396q26 0 40 -21l76 -114q6 -9 6 -20q0 -15 -9.5 -25.5t-24.5 -11.5q-32 32 -78 32t-78 -32h-413zM384 224v-128v-32v-80q0 -20 -14 -34t-34 -14h-224q-20 0 -34 14t-14 34v80v160h64v-160h192
v160h64zM528 208q-13 0 -22.5 -9.5t-9.5 -22.5v-48h64v48q0 13 -9.5 22.5t-22.5 9.5zM448 176q0 33 23.5 56.5t56.5 23.5t56.5 -23.5t23.5 -56.5v-48q13 0 22.5 -9.5t9.5 -22.5v-128q0 -13 -9.5 -22.5t-22.5 -9.5h-160q-13 0 -22.5 9.5t-9.5 22.5v128q0 13 9.5 22.5
t22.5 9.5v48z" />
    <glyph glyph-name="virus-covid" unicode="virus&#x2d;covid" 
d="M192 424q0 -4 1 -7.5t3.5 -6.5t5.5 -5.5t6.5 -3.5t7.5 -1h16v-34q-46 -6 -82 -34l-24 24l11 11q7 7 7 17t-7 17q-4 5 -10.5 6.5t-12.5 0t-11 -6.5l-56 -56q-7 -7 -7 -17t7 -17t17 -7t17 7l11 11l24 -24q-28 -37 -34 -82h-34v16q0 10 -7 17t-17 7t-17 -7t-7 -17v-80
q0 -10 7 -17t17 -7t17 7t7 17v16h34q6 -46 34 -82l-24 -24l-11 11q-7 7 -17 7t-17 -7t-7 -17t7 -17l56 -56q7 -7 17 -7t17 7t7 17t-7 17l-11 11l24 24q37 -28 82 -34v-34h-16q-10 0 -17 -7t-7 -17t7 -17t17 -7h80q10 0 17 7t7 17t-7 17t-17 7h-16v34q46 6 82 34l24 -24
l-11 -11q-7 -7 -7 -17t7 -17t17 -7t17 7l56 56q7 7 7 17t-7 17t-17 7t-17 -7l-11 -11l-24 24q28 37 34 82h34v-16q0 -10 7 -17t17 -7t17 7t7 17v80q0 10 -7 17t-17 7t-17 -7t-7 -17v-16h-34q-6 46 -34 82l24 24l11 -11q7 -7 17 -7t17 7t7 17t-7 17l-56 56q-7 7 -17 7t-17 -7
t-7 -17t7 -17l11 -11l-24 -24q-37 28 -82 34v34h16q10 0 17 7t7 17t-7 17t-17 7h-80q-10 0 -17 -7t-7 -17zM240 224q0 -28 -24 -41.5t-48 0t-24 41.5t24 41.5t48 0t24 -41.5zM304 120q-10 0 -17 7t-7 17t7 17t17 7t17 -7t7 -17t-7 -17t-17 -7z" />
    <glyph glyph-name="virus-covid-slash" unicode="virus&#x2d;covid&#x2d;slash" horiz-adv-x="640" 
d="M39 443l95 -75l33 33q7 7 17 7t17 -7t7 -17t-7 -17l-11 -11l24 -24q37 28 82 34v34h-16q-10 0 -17 7t-7 17t7 17t17 7h80q10 0 17 -7t7 -17t-7 -17t-17 -7h-16v-34q46 -6 82 -34l24 24l-11 11q-7 7 -7 17t7 17t17 7t17 -7l56 -56q7 -7 7 -17t-7 -17t-17 -7t-17 7l-11 11
l-24 -24q28 -37 34 -82h34v16q0 10 7 17t17 7t17 -7t7 -17v-80q0 -10 -7 -17t-17 -7t-17 7t-7 17v16h-34q-4 -35 -22 -65l159 -124q8 -6 9 -16t-5 -18t-16 -9t-18 5l-592 464q-8 6 -9 16t5 18t16 9t18 -5zM149 234l252 -198q-27 -14 -57 -18v-34h16q10 0 17 -7t7 -17t-7 -17
t-17 -7h-80q-10 0 -17 7t-7 17t7 17t17 7h16v34q-46 6 -82 34l-24 -24l11 -11q7 -7 7 -17t-7 -17t-17 -7t-17 7l-56 56q-7 7 -7 17t7 17t17 7t17 -7l11 -11l24 24q-28 37 -34 82h-34v-16q0 -10 -7 -17t-17 -7t-17 7t-7 17v80q0 10 7 17t17 7t17 -7t7 -17v-16h34q1 9 3 18z
" />
    <glyph glyph-name="anchor-circle-check" unicode="anchor&#x2d;circle&#x2d;check" horiz-adv-x="640" 
d="M320 352q0 13 -9.5 22.5t-22.5 9.5t-22.5 -9.5t-9.5 -22.5t9.5 -22.5t22.5 -9.5t22.5 9.5t9.5 22.5zM341 272h11q13 0 22.5 -9.5t9.5 -22.5t-9.5 -22.5t-22.5 -9.5h-32v-128v-80h19q19 -37 53 -62q-12 -2 -24 -2h-80h-80q-66 0 -113 47t-47 113v6l-7 -7q-7 -7 -17 -7
t-17 7t-7 17t7 17l56 56q7 7 17 7t17 -7l56 -56q7 -7 7 -17t-7 -17t-17 -7t-17 7l-7 7v-6q0 -40 28 -68t68 -28h48v208h-32q-13 0 -22.5 9.5t-9.5 22.5t9.5 22.5t22.5 9.5h11q-43 28 -43 80q0 40 28 68t68 28t68 -28t28 -68q0 -52 -43 -80zM640 80q0 -39 -19.5 -72
t-52.5 -52.5t-72 -19.5t-72 19.5t-52.5 52.5t-19.5 72t19.5 72t52.5 52.5t72 19.5t72 -19.5t52.5 -52.5t19.5 -72zM563 123q-11 12 -22 0l-61 -60l-29 28q-4 5 -11 5t-11.5 -4.5t-4.5 -11.5t5 -11l40 -40q4 -5 11 -5t11 5l72 72q5 4 5 11t-5 11zM563 123z" />
    <glyph glyph-name="anchor-circle-exclamation" unicode="anchor&#x2d;circle&#x2d;exclamation" horiz-adv-x="640" 
d="M320 352q0 13 -9.5 22.5t-22.5 9.5t-22.5 -9.5t-9.5 -22.5t9.5 -22.5t22.5 -9.5t22.5 9.5t9.5 22.5zM341 272h11q13 0 22.5 -9.5t9.5 -22.5t-9.5 -22.5t-22.5 -9.5h-32v-128v-80h19q19 -37 53 -62q-12 -2 -24 -2h-80h-80q-66 0 -113 47t-47 113v6l-7 -7q-7 -7 -17 -7
t-17 7t-7 17t7 17l56 56q7 7 17 7t17 -7l56 -56q7 -7 7 -17t-7 -17t-17 -7t-17 7l-7 7v-6q0 -40 28 -68t68 -28h48v208h-32q-13 0 -22.5 9.5t-9.5 22.5t9.5 22.5t22.5 9.5h11q-43 28 -43 80q0 40 28 68t68 28t68 -28t28 -68q0 -52 -43 -80zM496 -64q-39 0 -72 19.5
t-52.5 52.5t-19.5 72t19.5 72t52.5 52.5t72 19.5t72 -19.5t52.5 -52.5t19.5 -72t-19.5 -72t-52.5 -52.5t-72 -19.5zM496 32q-10 0 -17 -7t-7 -17t7 -17t17 -7t17 7t7 17t-7 17t-17 7zM496 176q-7 0 -11.5 -4.5t-4.5 -11.5v-80q0 -7 4.5 -11.5t11.5 -4.5t11.5 4.5t4.5 11.5
v80q0 7 -4.5 11.5t-11.5 4.5z" />
    <glyph glyph-name="anchor-circle-xmark" unicode="anchor&#x2d;circle&#x2d;xmark" horiz-adv-x="640" 
d="M320 352q0 13 -9.5 22.5t-22.5 9.5t-22.5 -9.5t-9.5 -22.5t9.5 -22.5t22.5 -9.5t22.5 9.5t9.5 22.5zM341 272h11q13 0 22.5 -9.5t9.5 -22.5t-9.5 -22.5t-22.5 -9.5h-32v-128v-80h19q19 -37 53 -62q-12 -2 -24 -2h-80h-80q-66 0 -113 47t-47 113v6l-7 -7q-7 -7 -17 -7
t-17 7t-7 17t7 17l56 56q7 7 17 7t17 -7l56 -56q7 -7 7 -17t-7 -17t-17 -7t-17 7l-7 7v-6q0 -40 28 -68t68 -28h48v208h-32q-13 0 -22.5 9.5t-9.5 22.5t9.5 22.5t22.5 9.5h11q-43 28 -43 80q0 40 28 68t68 28t68 -28t28 -68q0 -52 -43 -80zM496 -64q-39 0 -72 19.5
t-52.5 52.5t-19.5 72t19.5 72t52.5 52.5t72 19.5t72 -19.5t52.5 -52.5t19.5 -72t-19.5 -72t-52.5 -52.5t-72 -19.5zM555 117q5 4 5 11t-4.5 11.5t-11.5 4.5t-11 -5l-37 -36l-37 36q-4 5 -11 5t-11.5 -4.5t-4.5 -11.5t5 -11l36 -37l-36 -37q-5 -4 -5 -11t4.5 -11.5t11.5 -4.5
t11 5l37 36l37 -36q4 -5 11 -5t11.5 4.5t4.5 11.5t-5 11l-36 37z" />
    <glyph glyph-name="anchor-lock" unicode="anchor&#x2d;lock" horiz-adv-x="640" 
d="M320 352q0 13 -9.5 22.5t-22.5 9.5t-22.5 -9.5t-9.5 -22.5t9.5 -22.5t22.5 -9.5t22.5 9.5t9.5 22.5zM341 272h11q13 0 22.5 -9.5t9.5 -22.5t-9.5 -22.5t-22.5 -9.5h-32v-208h48q8 0 16 1v-33q0 -16 8 -30q-12 -2 -24 -2h-80h-80q-66 0 -113 47t-47 113v6l-7 -7
q-7 -7 -17 -7t-17 7t-7 17t7 17l56 56q7 7 17 7t17 -7l56 -56q7 -7 7 -17t-7 -17t-17 -7t-17 7l-7 7v-6q0 -40 28 -68t68 -28h48v208h-32q-13 0 -22.5 9.5t-9.5 22.5t9.5 22.5t22.5 9.5h11q-43 28 -43 80q0 40 28 68t68 28t68 -28t28 -68q0 -52 -43 -80zM528 208
q-13 0 -22.5 -9.5t-9.5 -22.5v-48h64v48q0 13 -9.5 22.5t-22.5 9.5zM448 176q0 33 23.5 56.5t56.5 23.5t56.5 -23.5t23.5 -56.5v-48q13 0 22.5 -9.5t9.5 -22.5v-128q0 -13 -9.5 -22.5t-22.5 -9.5h-160q-13 0 -22.5 9.5t-9.5 22.5v128q0 13 9.5 22.5t22.5 9.5v48z" />
    <glyph glyph-name="arrow-down-up-across-line" unicode="arrow&#x2d;down&#x2d;up&#x2d;across&#x2d;line" horiz-adv-x="576" 
d="M137 -55l-96 96q-9 10 -9 23t9.5 22.5t22.5 9.5t23 -9l41 -42v115h-96q-13 0 -22.5 9.5t-9.5 22.5t9.5 22.5t22.5 9.5h96h64h192v115l-41 -42q-10 -9 -23 -9t-22.5 9.5t-9.5 22.5t9 23l96 96q10 9 23 9t23 -9l96 -96q9 -10 9 -23t-9.5 -22.5t-22.5 -9.5t-23 9l-41 42
v-115h96q13 0 22.5 -9.5t9.5 -22.5t-9.5 -22.5t-22.5 -9.5h-352v-115l41 42q10 9 23 9t22.5 -9.5t9.5 -22.5t-9 -23l-96 -96q-10 -9 -23 -9t-23 9zM128 256v128q0 13 9.5 22.5t22.5 9.5t22.5 -9.5t9.5 -22.5v-128h-64zM448 128v-128q0 -13 -9.5 -22.5t-22.5 -9.5t-22.5 9.5
t-9.5 22.5v128h64z" />
    <glyph glyph-name="arrow-down-up-lock" unicode="arrow&#x2d;down&#x2d;up&#x2d;lock" horiz-adv-x="640" 
d="M151 -55q-10 -9 -23 -9t-23 9l-96 96q-9 10 -9 23t9.5 22.5t22.5 9.5t23 -9l41 -42v115h-64q-13 0 -22.5 9.5t-9.5 22.5t9.5 22.5t22.5 9.5h64h64h128v115l-41 -42q-10 -9 -23 -9t-22.5 9.5t-9.5 22.5t10 23l96 96q9 9 22 9t23 -9l96 -96q9 -10 9 -23t-9.5 -22.5
t-22.5 -9.5t-23 9l-41 42v-115h75q-11 -23 -11 -48v-16h-256v-115l41 42q10 9 23 9t22.5 -9.5t9.5 -22.5t-9 -23zM160 256h-64v128q0 13 9.5 22.5t22.5 9.5t22.5 -9.5t9.5 -22.5v-128zM288 128h64v-128q0 -13 -9.5 -22.5t-22.5 -9.5t-22.5 9.5t-9.5 22.5v128zM528 208
q-13 0 -22.5 -9.5t-9.5 -22.5v-48h64v48q0 13 -9.5 22.5t-22.5 9.5zM448 176q0 33 23.5 56.5t56.5 23.5t56.5 -23.5t23.5 -56.5v-48q13 0 22.5 -9.5t9.5 -22.5v-128q0 -13 -9.5 -22.5t-22.5 -9.5h-160q-13 0 -22.5 9.5t-9.5 22.5v128q0 13 9.5 22.5t22.5 9.5v48z" />
    <glyph glyph-name="arrow-right-to-city" unicode="arrow&#x2d;right&#x2d;to&#x2d;city" horiz-adv-x="640" 
d="M288 400v-416q0 -20 14 -34t34 -14h96h160q20 0 34 14t14 34v224q0 20 -14 34t-34 14h-24v72q0 10 -7 17t-17 7t-17 -7t-7 -17v-72h-40v144q0 20 -14 34t-34 14h-96q-20 0 -34 -14t-14 -34zM352 368q0 7 4.5 11.5t11.5 4.5h32q7 0 11.5 -4.5t4.5 -11.5v-32
q0 -7 -4.5 -11.5t-11.5 -4.5h-32q-7 0 -11.5 4.5t-4.5 11.5v32zM368 288h32q7 0 11.5 -4.5t4.5 -11.5v-32q0 -7 -4.5 -11.5t-11.5 -4.5h-32q-7 0 -11.5 4.5t-4.5 11.5v32q0 7 4.5 11.5t11.5 4.5zM352 176q0 7 4.5 11.5t11.5 4.5h32q7 0 11.5 -4.5t4.5 -11.5v-32
q0 -7 -4.5 -11.5t-11.5 -4.5h-32q-7 0 -11.5 4.5t-4.5 11.5v32zM528 192h32q7 0 11.5 -4.5t4.5 -11.5v-32q0 -7 -4.5 -11.5t-11.5 -4.5h-32q-7 0 -11.5 4.5t-4.5 11.5v32q0 7 4.5 11.5t11.5 4.5zM512 80q0 7 4.5 11.5t11.5 4.5h32q7 0 11.5 -4.5t4.5 -11.5v-32
q0 -7 -4.5 -11.5t-11.5 -4.5h-32q-7 0 -11.5 4.5t-4.5 11.5v32zM167 295q-10 9 -23 9t-22.5 -9.5t-9.5 -22.5t9 -23l26 -25h-115q-13 0 -22.5 -9.5t-9.5 -22.5t9.5 -22.5t22.5 -9.5h115l-26 -25q-9 -10 -9 -23t9.5 -22.5t22.5 -9.5t23 9l80 80q9 10 9 23t-9 23zM167 295z
" />
    <glyph glyph-name="arrow-up-from-ground-water" unicode="arrow&#x2d;up&#x2d;from&#x2d;ground&#x2d;water" horiz-adv-x="576" 
d="M288 96q-13 0 -22.5 9.5t-9.5 22.5v211l-25 -26q-10 -9 -23 -9t-22.5 9.5t-9.5 22.5t9 23l80 80q10 9 23 9t23 -9l80 -80q9 -10 9 -23t-9.5 -22.5t-22.5 -9.5t-23 9l-25 26v-211q0 -13 -9.5 -22.5t-22.5 -9.5zM270 26q18 13 37 0q37 -26 77 -26t77 26q21 14 40 -2
q22 -18 50 -25q13 -3 20 -14t4 -24t-14 -20t-24 -4q-29 7 -58 25q-49 -26 -95 -26q-39 0 -80 19q-7 3 -16 8q-6 -4 -16 -8q-41 -19 -80 -19q-46 0 -94 26q-29 -18 -59 -25q-13 -3 -24 4t-14 20q-2 8 0.5 16.5t8.5 14t15 7.5q28 7 50 25q19 17 40 2q37 -26 77 -26t78 26z
M192 256v-224q-30 0 -59 20q-18 12 -40 11.5t-38 -15.5q-17 -13 -37 -18q-10 -2 -18 -7v185q0 20 14 34t34 14h144zM576 208v-185q-8 5 -17 7q-21 5 -37.5 18.5t-38.5 14.5t-40 -11q-29 -21 -59 -21v225h144q20 0 34 -14t14 -34zM576 208z" />
    <glyph glyph-name="arrow-up-from-water-pump" unicode="arrow&#x2d;up&#x2d;from&#x2d;water&#x2d;pump" horiz-adv-x="576" 
d="M112 448h128q20 0 34 -14t14 -34v-208h128v147l-25 -26q-10 -9 -23 -9t-22.5 9.5t-9.5 22.5t9 23l80 80q10 9 23 9t23 -9l80 -80q9 -10 9 -23t-9.5 -22.5t-22.5 -9.5t-23 9l-25 26v-147h48q20 0 34 -14t14 -34v-96q0 -12 -5 -22l-12 4q-21 5 -37.5 19t-38.5 14.5
t-40 -11.5q-29 -20 -59 -20t-59 20q-17 12 -37 12t-37 -12q-29 -20 -59 -20t-59 20q-18 12 -40 11.5t-38 -14.5q-17 -14 -38 -19l-12 -4q-5 10 -5 22v96q0 20 14 34t34 14h16v208q0 20 14 34t34 14zM306 26q38 -26 78 -26t77 26q21 14 40 -2q22 -18 50 -25q13 -3 20 -14
t4 -24t-14 -20t-24 -4q-29 7 -59 25q-48 -26 -94 -26q-39 0 -80 19q-7 3 -16 8q-6 -4 -16 -8q-41 -19 -80 -19q-46 0 -95 26q-28 -18 -58 -25q-8 -2 -16 0.5t-14 8.5t-8 14.5t0.5 17t8.5 14t15 7.5q28 7 50 25q19 17 40 2q37 -26 77 -26t77 26q19 13 37 0z" />
    <glyph glyph-name="arrow-up-right-dots" unicode="arrow&#x2d;up&#x2d;right&#x2d;dots" horiz-adv-x="576" 
d="M160 448h128q13 0 22.5 -9.5t9.5 -22.5v-128q0 -13 -9.5 -22.5t-22.5 -9.5t-22.5 9.5t-9.5 22.5v51l-201 -202q-10 -9 -23 -9t-22.5 9.5t-9.5 22.5t9 23l202 201h-51q-13 0 -22.5 9.5t-9.5 22.5t9.5 22.5t22.5 9.5zM576 368q0 -28 -24 -41.5t-48 0t-24 41.5t24 41.5t48 0
t24 -41.5zM448 240q0 -28 -24 -41.5t-48 0t-24 41.5t24 41.5t48 0t24 -41.5zM400 64q-28 0 -41.5 24t0 48t41.5 24t42 -24q6 -11 6 -24t-6 -24q-14 -24 -42 -24zM448 -16q0 -28 -24 -41.5t-48 0t-24 41.5t24 41.5t48 0t24 -41.5zM576 -16q0 -28 -24 -41.5t-48 0t-24 41.5
t24 41.5t48 0t24 -41.5zM272 64q-28 0 -41.5 24t0 48t41.5 24t42 -24q6 -11 6 -24t-6 -24q-14 -24 -42 -24zM320 -16q0 -28 -24 -41.5t-48 0t-24 41.5t24 41.5t48 0t24 -41.5zM144 -64q-28 0 -41.5 24t0 48t41.5 24t42 -24q6 -11 6 -24t-6 -24q-14 -24 -42 -24zM576 112
q0 -28 -24 -41.5t-48 0t-24 41.5t24 41.5t48 0t24 -41.5zM528 192q-28 0 -41.5 24t0 48t41.5 24t41.5 -24t0 -48t-41.5 -24z" />
    <glyph glyph-name="arrows-down-to-line" unicode="arrows&#x2d;down&#x2d;to&#x2d;line" horiz-adv-x="576" 
d="M544 32q13 0 22.5 -9.5t9.5 -22.5t-9.5 -22.5t-22.5 -9.5h-512q-13 0 -22.5 9.5t-9.5 22.5t9.5 22.5t22.5 9.5h512zM567 169l-96 -96q-10 -9 -23 -9t-23 9l-96 96q-9 10 -9 23t9.5 22.5t22.5 9.5t23 -9l41 -42v211q0 13 9.5 22.5t22.5 9.5t22.5 -9.5t9.5 -22.5v-211
l41 42q10 9 23 9t22.5 -9.5t9.5 -22.5t-9 -23zM246.5 214.5q9.5 -9.5 9.5 -22.5t-9 -23l-96 -96q-10 -9 -23 -9t-23 9l-96 96q-9 10 -9 23t9.5 22.5t22.5 9.5t23 -9l41 -42v211q0 13 9.5 22.5t22.5 9.5t22.5 -9.5t9.5 -22.5v-211l41 42q10 9 23 9t22.5 -9.5zM247 215z" />
    <glyph glyph-name="arrows-down-to-people" unicode="arrows&#x2d;down&#x2d;to&#x2d;people" horiz-adv-x="640" 
d="M144 448q10 0 17 -7t7 -17v-118l23 23q7 7 17 7t17 -7t7 -17t-7 -17l-64 -64q-7 -7 -17 -7t-17 7l-64 64q-7 7 -7 17t7 17t17 7t17 -7l23 -23v118q0 10 7 17t17 7zM360 248q0 -23 -20 -34.5t-40 0t-20 34.5t20 34.5t40 0t20 -34.5zM184 152q0 -23 -20 -34.5t-40 0
t-20 34.5t20 34.5t40 0t20 -34.5zM496 112q-23 0 -34.5 20t0 40t34.5 20t34.5 -20t0 -40t-34.5 -20zM200 6v-38q0 -13 -9.5 -22.5t-22.5 -9.5h-48q-13 0 -22.5 9.5t-9.5 22.5v38l-27 -49q-5 -9 -14.5 -12t-18 2t-11.5 14.5t2 17.5l38 71q11 21 32 33.5t45 12.5h20
q24 0 45 -13l34 63q7 14 19 24.5t27 16t31 5.5h20q24 0 45 -12.5t32 -33.5l34 -63q21 13 45 13h20q16 0 31 -5.5t27 -16t19 -24.5l38 -71q5 -8 2 -18t-11.5 -14.5t-18 -1.5t-14.5 12l-27 49v-38q0 -13 -9.5 -22.5t-22.5 -9.5h-48q-13 0 -22.5 9.5t-9.5 22.5v38l-27 -49
q-5 -9 -14.5 -12t-18 2t-11.5 14.5t2 17.5l36 68q-2 2 -4 6l-27 49v-54q0 -13 -9.5 -22.5t-22.5 -9.5h-48q-13 0 -22.5 9.5t-9.5 22.5v54l-27 -49q-1 -3 -4 -6l36 -68q5 -8 2 -18t-11.5 -14.5t-18 -1.5t-14.5 12zM415 295q-7 7 -7 17t7 17t17 7t17 -7l23 -23v118q0 10 7 17
t17 7t17 -7t7 -17v-118l23 23q7 7 17 7t17 -7t7 -17t-7 -17l-64 -64q-7 -7 -17 -7t-17 7zM415 295z" />
    <glyph glyph-name="arrows-left-right-to-line" unicode="arrows&#x2d;left&#x2d;right&#x2d;to&#x2d;line" horiz-adv-x="640" 
d="M32 384q-13 0 -22.5 -9.5t-9.5 -22.5v-320q0 -13 9.5 -22.5t22.5 -9.5t22.5 9.5t9.5 22.5v320q0 13 -9.5 22.5t-22.5 9.5zM246.5 310.5q-9.5 9.5 -22.5 9.5t-23 -9l-96 -96q-9 -10 -9 -23t9 -23l96 -96q10 -9 23 -9t22.5 9.5t9.5 22.5t-9 23l-42 41h230l-42 -41
q-9 -10 -9 -23t9.5 -22.5t22.5 -9.5t23 9l96 96q9 10 9 23t-9 23l-96 96q-10 9 -23 9t-22.5 -9.5t-9.5 -22.5t9 -23l42 -41h-230l42 41q9 10 9 23t-9.5 22.5zM640 352q0 13 -9.5 22.5t-22.5 9.5t-22.5 -9.5t-9.5 -22.5v-320q0 -13 9.5 -22.5t22.5 -9.5t22.5 9.5t9.5 22.5
v320z" />
    <glyph glyph-name="arrows-spin" unicode="arrows&#x2d;spin" 
d="M256 352q-16 0 -32 -3v65q16 2 32 2q84 0 147 -55l34 34q7 8 17 4t10 -15v-112q0 -7 -4.5 -11.5t-11.5 -4.5h-112q-11 0 -15 10t4 17l32 33q-44 36 -101 36zM132 293q-36 -44 -36 -101q0 -16 3 -32h-65q-2 16 -2 32q0 84 55 147l-34 34q-8 7 -4 17t15 10h112
q7 0 11.5 -4.5t4.5 -11.5v-112q0 -11 -10 -15t-17 4zM478 224q2 -16 2 -32q0 -84 -55 -147l34 -34q8 -7 4 -17t-15 -10h-112q-7 0 -11.5 4.5t-4.5 11.5v112q0 11 10 15t17 -4l33 -32q36 44 36 101q0 16 -3 32h65zM256 32q16 0 32 3v-65q-16 -2 -32 -2q-84 0 -147 55l-34 -34
q-7 -8 -17 -4t-10 15v112q0 7 4.5 11.5t11.5 4.5h112q11 0 15 -10t-4 -17l-32 -33q44 -36 101 -36z" />
    <glyph glyph-name="arrows-split-up-and-left" unicode="arrows&#x2d;split&#x2d;up&#x2d;and&#x2d;left" 
d="M247 297l41 42v-164q-29 17 -64 17h-115l42 41q9 10 9 23t-9.5 22.5t-22.5 9.5t-23 -9l-96 -96q-9 -10 -9 -23t9 -23l96 -96q10 -9 23 -9t22.5 9.5t9.5 22.5t-9 23l-42 41h115q26 0 45 -19t19 -45q0 -53 37.5 -90.5t90.5 -37.5h64q13 0 22.5 9.5t9.5 22.5t-9.5 22.5
t-22.5 9.5h-64q-26 0 -45 19t-19 45v275l41 -42q10 -9 23 -9t22.5 9.5t9.5 22.5t-9 23l-96 96q-10 9 -23 9t-23 -9l-96 -96q-9 -10 -9 -23t9.5 -22.5t22.5 -9.5t23 9zM247 297z" />
    <glyph glyph-name="arrows-to-circle" unicode="arrows&#x2d;to&#x2d;circle" horiz-adv-x="640" 
d="M9.5 438.5q-9.5 -9.5 -9.5 -22.5t9 -23l106 -105h-19q-13 0 -22.5 -9.5t-9.5 -22.5t9.5 -22.5t22.5 -9.5h96q7 0 12.5 2.5t10.5 6.5v1q4 4 7 10q2 6 2 12v96q0 13 -9.5 22.5t-22.5 9.5t-22.5 -9.5t-9.5 -22.5v-19l-105 106q-10 9 -23 9t-22.5 -9.5zM256 192
q0 -37 32 -55.5t64 0t32 55.5t-32 55.5t-64 0t-32 -55.5zM115 96l-106 -105q-9 -10 -9 -23t9.5 -22.5t22.5 -9.5t23 9l105 106v-19q0 -13 9.5 -22.5t22.5 -9.5t22.5 9.5t9.5 22.5v96q0 7 -2.5 12.5t-6.5 10.5q-10 9 -23 9v0h-96q-13 0 -22.5 -9.5t-9.5 -22.5t9.5 -22.5
t22.5 -9.5h19zM416 352v-96v0q0 -7 2.5 -12.5t6.5 -10.5q10 -9 23 -9h96q13 0 22.5 9.5t9.5 22.5t-9.5 22.5t-22.5 9.5h-19l106 105q9 10 9 23t-9.5 22.5t-22.5 9.5t-23 -9l-105 -106v19q0 13 -9.5 22.5t-22.5 9.5t-22.5 -9.5t-9.5 -22.5zM525 96h19q13 0 22.5 9.5t9.5 22.5
t-9.5 22.5t-22.5 9.5h-96v0q-13 0 -23 -9q-4 -5 -7 -11q-2 -6 -2 -12v0v-96q0 -13 9.5 -22.5t22.5 -9.5t22.5 9.5t9.5 22.5v19l105 -106q10 -9 23 -9t22.5 9.5t9.5 22.5t-9 23zM525 96z" />
    <glyph glyph-name="arrows-to-dot" unicode="arrows&#x2d;to&#x2d;dot" 
d="M256 448q-13 0 -22.5 -9.5t-9.5 -22.5v-32h-32q-21 0 -29.5 -20t6.5 -35l64 -64q10 -9 23 -9t23 9l64 64q15 16 6.5 35.5t-29.5 19.5h-32v32q0 13 -9.5 22.5t-22.5 9.5zM169 55q-15 -16 -6.5 -35.5t29.5 -19.5h32v-32q0 -13 9.5 -22.5t22.5 -9.5t22.5 9.5t9.5 22.5v32h32
q21 0 29.5 19.5t-6.5 35.5l-64 64q-10 9 -23 9t-23 -9zM32 224q-13 0 -22.5 -9.5t-9.5 -22.5t9.5 -22.5t22.5 -9.5h32v-32q0 -21 20 -29.5t35 6.5l64 64q9 10 9 23t-9 23l-64 64q-16 15 -35.5 6.5t-19.5 -29.5v-32h-32zM329 169l64 -64q16 -15 35.5 -6.5t19.5 29.5v32h32
q13 0 22.5 9.5t9.5 22.5t-9.5 22.5t-22.5 9.5h-32v32q0 21 -19.5 29.5t-35.5 -6.5l-64 -64q-9 -10 -9 -23t9 -23zM256 224q-13 0 -22.5 -9.5t-9.5 -22.5t9.5 -22.5t22.5 -9.5t22.5 9.5t9.5 22.5t-9.5 22.5t-22.5 9.5z" />
    <glyph glyph-name="arrows-to-eye" unicode="arrows&#x2d;to&#x2d;eye" horiz-adv-x="640" 
d="M15 433q-7 -7 -7 -17t7 -17l63 -63h-38q-10 0 -17 -7t-7 -17t7 -17t17 -7h96q10 0 17 7t7 17v96q0 10 -7 17t-17 7t-17 -7t-7 -17v-38l-63 63q-7 7 -17 7t-17 -7zM134 204q-7 -12 0 -24q6 -14 15.5 -27.5t22 -29t28.5 -28.5t34 -24t40.5 -17t45.5 -6q34 0 66 13t55 34.5
t39 42.5t26 42q7 12 0 24q-10 21 -26 42t-39 42.5t-55 34.5t-66 13t-66 -13t-55 -34.5t-39 -42.5t-26 -42zM320 128q-37 0 -55 32q-9 15 -9 32t9 32q18 32 55 32t55 -32q6 -10 8 -21t0 -22t-8 -21q-18 -32 -55 -32zM591 433l-63 -63v38q0 10 -7 17t-17 7t-17 -7t-7 -17v-96
q0 -10 7 -17t17 -7h96q10 0 17 7t7 17t-7 17t-17 7h-38l63 63q7 7 7 17t-7 17t-17 7t-17 -7zM15 -49q7 -7 17 -7t17 7l63 63v-38q0 -10 7 -17t17 -7t17 7t7 17v96q0 10 -7 17t-17 7h-96q-10 0 -17 -7t-7 -17t7 -17t17 -7h38l-63 -63q-7 -7 -7 -17t7 -17zM591 -49q7 -7 17 -7
t17 7t7 17t-7 17l-63 63h38q10 0 17 7t7 17t-7 17t-17 7h-96q-10 0 -17 -7t-7 -17v-96q0 -10 7 -17t17 -7t17 7t7 17v38zM591 -49z" />
    <glyph glyph-name="arrows-turn-right" unicode="arrows&#x2d;turn&#x2d;right" horiz-adv-x="448" 
d="M297.5 438.5q-9.5 -9.5 -9.5 -22.5t9 -23l42 -41h-211q-53 0 -90.5 -37.5t-37.5 -90.5v-32q0 -13 9.5 -22.5t22.5 -9.5t22.5 9.5t9.5 22.5v32q0 26 19 45t45 19h211l-42 -41q-9 -10 -9 -23t9.5 -22.5t22.5 -9.5t23 9l96 96q9 10 9 23t-9 23l-96 96q-10 9 -23 9
t-22.5 -9.5zM201.5 182.5q-9.5 -9.5 -9.5 -22.5t9 -23l42 -41h-147q-40 0 -68 -28t-28 -68v-32q0 -13 9.5 -22.5t22.5 -9.5t22.5 9.5t9.5 22.5v32q0 13 9.5 22.5t22.5 9.5h147l-42 -41q-9 -10 -9 -23t9.5 -22.5t22.5 -9.5t23 9l96 96q9 10 9 23t-9 23l-96 96q-10 9 -23 9
t-22.5 -9.5zM201 183z" />
    <glyph glyph-name="arrows-turn-to-dots" unicode="arrows&#x2d;turn&#x2d;to&#x2d;dots" 
d="M249 423l-80 -80q-9 -10 -9 -23t9 -23l80 -80q10 -9 23 -9t22.5 9.5t9.5 22.5t-9 23l-26 25h147q13 0 22.5 -9.5t9.5 -22.5v-32q0 -13 9.5 -22.5t22.5 -9.5t22.5 9.5t9.5 22.5v32q0 40 -28 68t-68 28h-147l26 25q9 10 9 23t-9.5 22.5t-22.5 9.5t-23 -9zM263 167
q-10 9 -23 9t-22.5 -9.5t-9.5 -22.5t9 -23l26 -25h-147q-40 0 -68 -28t-28 -68v-32q0 -13 9.5 -22.5t22.5 -9.5t22.5 9.5t9.5 22.5v32q0 13 9.5 22.5t22.5 9.5h147l-26 -25q-9 -10 -9 -23t9.5 -22.5t22.5 -9.5t23 9l80 80q9 10 9 23t-9 23zM384 64q0 -17 8.5 -32t23.5 -23
q32 -19 64 -0.5t32 55.5t-32 55.5t-64 0t-32 -55.5zM64 256q37 0 55.5 32t0 64t-55.5 32t-55.5 -32t0 -64t55.5 -32z" />
    <glyph glyph-name="arrows-up-to-line" unicode="arrows&#x2d;up&#x2d;to&#x2d;line" horiz-adv-x="576" 
d="M32 352q-13 0 -22.5 9.5t-9.5 22.5t9.5 22.5t22.5 9.5h512q13 0 22.5 -9.5t9.5 -22.5t-9.5 -22.5t-22.5 -9.5h-512zM9 215l96 96q10 9 23 9t23 -9l96 -96q9 -10 9 -23t-9.5 -22.5t-22.5 -9.5t-23 9l-41 42v-211q0 -13 -9.5 -22.5t-22.5 -9.5t-22.5 9.5t-9.5 22.5v211
l-41 -42q-10 -9 -23 -9t-22.5 9.5t-9.5 22.5t9 23zM329.5 169.5q-9.5 9.5 -9.5 22.5t9 23l96 96q10 9 23 9t23 -9l96 -96q9 -10 9 -23t-9.5 -22.5t-22.5 -9.5t-23 9l-41 42v-211q0 -13 -9.5 -22.5t-22.5 -9.5t-22.5 9.5t-9.5 22.5v211l-41 -42q-10 -9 -23 -9t-22.5 9.5z
M329 169z" />
    <glyph glyph-name="bore-hole" unicode="bore&#x2d;hole" 
d="M256 448q9 0 16 -4.5t11.5 -11.5t4.5 -16v-265q32 -18 32 -55q0 -26 -19 -45t-45 -19t-45 19t-19 45q0 37 32 55v265q0 13 9.5 22.5t22.5 9.5zM48 320h80q13 0 22.5 -9.5t9.5 -22.5v-192q0 -40 28 -68t68 -28t68 28t28 68v192q0 13 9.5 22.5t22.5 9.5h80q20 0 34 -14
t14 -34v-288q0 -20 -14 -34t-34 -14h-416q-20 0 -34 14t-14 34v288q0 20 14 34t34 14z" />
    <glyph glyph-name="bottle-droplet" unicode="bottle&#x2d;droplet" horiz-adv-x="320" 
d="M96 448h8v0h112v0h8q10 0 17 -7t7 -17t-7 -17t-17 -7q-8 0 -8 -8v-65q0 -18 17 -30q26 -18 40.5 -45.5t14.5 -59.5v-192q0 -26 -19 -45t-45 -19h-128q-26 0 -45 19t-19 45v192q0 32 14.5 59.5t40.5 45.5q17 12 17 30v65q0 8 -8 8q-10 0 -17 7t-7 17t7 17t17 7zM160 66
q20 0 34 13t14 32t-36 66q-5 6 -12 6t-12 -6q-36 -46 -36 -66q0 -19 14 -32t34 -13z" />
    <glyph glyph-name="bottle-water" unicode="bottle&#x2d;water" horiz-adv-x="320" 
d="M120 448q-10 0 -17 -7t-7 -17v-40h128v40q0 10 -7 17t-17 7h-80zM32 296q0 -22 19 -34q-19 -14 -19 -38q0 -26 21 -40q-21 -14 -21 -40t21 -40q-21 -14 -21 -40t21 -40q-21 -14 -21 -40q0 -20 14 -34t34 -14h160q20 0 34 14t14 34q0 26 -22 40q22 14 22 40t-22 40
q22 14 22 40t-22 40q22 14 22 40q0 24 -19 38q19 12 19 34q0 26 -23 37l-25 11q-16 8 -35 8h-90q-19 0 -35 -8l-25 -11q-23 -11 -23 -37zM96 208q0 7 4.5 11.5t11.5 4.5h96q7 0 11.5 -4.5t4.5 -11.5t-4.5 -11.5t-11.5 -4.5h-96q-7 0 -11.5 4.5t-4.5 11.5zM112 96h96
q7 0 11.5 -4.5t4.5 -11.5t-4.5 -11.5t-11.5 -4.5h-96q-7 0 -11.5 4.5t-4.5 11.5t4.5 11.5t11.5 4.5z" />
    <glyph glyph-name="bowl-food" unicode="bowl&#x2d;food" 
d="M0 256q0 -17 9 -32h494q9 15 9 32q0 26 -19 45t-45 19h-2q-5 28 -27 46t-51 18q-22 0 -41 -11q-10 19 -29 31t-42 12q-15 0 -29 -5.5t-24.5 -15t-17.5 -22.5q-19 11 -41 11q-29 0 -51 -18t-27 -46h-2q-26 0 -45 -19t-19 -45zM0 165q0 -53 29.5 -95t77.5 -60l1 -14
q2 -12 11 -20t21 -8h232q12 0 21 8t11 20l1 14q48 18 77.5 60t29.5 95q0 11 -8 19t-19 8h-458q-11 0 -19 -8t-8 -19z" />
    <glyph glyph-name="boxes-packing" unicode="boxes&#x2d;packing" horiz-adv-x="640" 
d="M256 400v-80h112q20 0 34 -14t14 -34v-32q0 -15 -9 -27.5t-23 -17.5v-243q0 -8 -3 -16h211q20 0 34 14t14 34v416q0 20 -14 34t-34 14h-288q-20 0 -34 -14t-14 -34zM571 101q-11 -12 -22 0l-37 36v-121q0 -7 -4.5 -11.5t-11.5 -4.5t-11.5 4.5t-4.5 11.5v121l-37 -36
q-4 -5 -11 -5t-11.5 4.5t-4.5 11.5t5 11l64 64q4 5 11 5t11 -5l64 -64q5 -4 5 -11t-5 -11zM0 272v-32q0 -7 4.5 -11.5t11.5 -4.5h352q7 0 11.5 4.5t4.5 11.5v32q0 7 -4.5 11.5t-11.5 4.5h-352q-7 0 -11.5 -4.5t-4.5 -11.5zM352 192h-320v-224q0 -13 9.5 -22.5t22.5 -9.5h256
q13 0 22.5 9.5t9.5 22.5v224zM144 128h96q7 0 11.5 -4.5t4.5 -11.5t-4.5 -11.5t-11.5 -4.5h-96q-7 0 -11.5 4.5t-4.5 11.5t4.5 11.5t11.5 4.5z" />
    <glyph glyph-name="bridge" unicode="bridge" horiz-adv-x="576" 
d="M32 416h512q13 0 22.5 -9.5t9.5 -22.5t-9.5 -22.5t-22.5 -9.5h-40v-64h72v-128q-40 0 -68 -28t-28 -68v-64q0 -13 -9.5 -22.5t-22.5 -9.5h-32q-13 0 -22.5 9.5t-9.5 22.5v64q0 40 -28 68t-68 28t-68 -28t-28 -68v-64q0 -13 -9.5 -22.5t-22.5 -9.5h-32q-13 0 -22.5 9.5
t-9.5 22.5v64q0 40 -28 68t-68 28v128h72v64h-40q-13 0 -22.5 9.5t-9.5 22.5t9.5 22.5t22.5 9.5zM456 352h-80v-64h80v64zM328 352h-80v-64h80v64zM200 352h-80v-64h80v64z" />
    <glyph glyph-name="bridge-circle-check" unicode="bridge&#x2d;circle&#x2d;check" horiz-adv-x="640" 
d="M64 416h512q13 0 22.5 -9.5t9.5 -22.5t-9.5 -22.5t-22.5 -9.5h-40v-64h72v-72q-49 40 -112 40q-51 0 -93.5 -27t-64.5 -71q-9 2 -18 2q-40 0 -68 -28t-28 -68v-64q0 -13 -9.5 -22.5t-22.5 -9.5h-32q-13 0 -22.5 9.5t-9.5 22.5v64q0 40 -28 68t-68 28v128h72v64h-40
q-13 0 -22.5 9.5t-9.5 22.5t9.5 22.5t22.5 9.5zM488 352h-80v-64h80v64zM360 352h-80v-64h80v64zM232 352h-80v-64h80v64zM640 80q0 -39 -19.5 -72t-52.5 -52.5t-72 -19.5t-72 19.5t-52.5 52.5t-19.5 72t19.5 72t52.5 52.5t72 19.5t72 -19.5t52.5 -52.5t19.5 -72zM563 123
q-11 12 -22 0l-61 -60l-29 28q-4 5 -11 5t-11.5 -4.5t-4.5 -11.5t5 -11l40 -40q4 -5 11 -5t11 5l72 72q5 4 5 11t-5 11zM563 123z" />
    <glyph glyph-name="bridge-circle-exclamation" unicode="bridge&#x2d;circle&#x2d;exclamation" horiz-adv-x="640" 
d="M64 416h512q13 0 22.5 -9.5t9.5 -22.5t-9.5 -22.5t-22.5 -9.5h-40v-64h72v-72q-49 40 -112 40q-51 0 -93.5 -27t-64.5 -71q-9 2 -18 2q-40 0 -68 -28t-28 -68v-64q0 -13 -9.5 -22.5t-22.5 -9.5h-32q-13 0 -22.5 9.5t-9.5 22.5v64q0 40 -28 68t-68 28v128h72v64h-40
q-13 0 -22.5 9.5t-9.5 22.5t9.5 22.5t22.5 9.5zM488 352h-80v-64h80v64zM360 352h-80v-64h80v64zM232 352h-80v-64h80v64zM496 -64q-39 0 -72 19.5t-52.5 52.5t-19.5 72t19.5 72t52.5 52.5t72 19.5q26 0 49.5 -8.5t43 -25t32.5 -38.5q19 -33 19 -72t-19.5 -72t-52.5 -52.5
t-72 -19.5zM496 32q-10 0 -17 -7t-7 -17t7 -17t17 -7t17 7t7 17t-7 17t-17 7zM496 176q-7 0 -11.5 -4.5t-4.5 -11.5v-80q0 -7 4.5 -11.5t11.5 -4.5t11.5 4.5t4.5 11.5v80q0 7 -4.5 11.5t-11.5 4.5z" />
    <glyph glyph-name="bridge-circle-xmark" unicode="bridge&#x2d;circle&#x2d;xmark" horiz-adv-x="640" 
d="M64 416h512q13 0 22.5 -9.5t9.5 -22.5t-9.5 -22.5t-22.5 -9.5h-40v-64h72v-72q-49 40 -112 40q-51 0 -93.5 -27t-64.5 -71q-9 2 -18 2q-40 0 -68 -28t-28 -68v-64q0 -13 -9.5 -22.5t-22.5 -9.5h-32q-13 0 -22.5 9.5t-9.5 22.5v64q0 40 -28 68t-68 28v128h72v64h-40
q-13 0 -22.5 9.5t-9.5 22.5t9.5 22.5t22.5 9.5zM488 352h-80v-64h80v64zM360 352h-80v-64h80v64zM232 352h-80v-64h80v64zM496 -64q-39 0 -72 19.5t-52.5 52.5t-19.5 72t19.5 72t52.5 52.5t72 19.5q26 0 49.5 -8.5t43 -25t32.5 -38.5q19 -33 19 -72t-19.5 -72t-52.5 -52.5
t-72 -19.5zM555 117q5 4 5 11t-4.5 11.5t-11.5 4.5t-11 -5l-37 -36l-37 36q-4 5 -11 5t-11.5 -4.5t-4.5 -11.5t5 -11l36 -37l-36 -37q-5 -4 -5 -11t4.5 -11.5t11.5 -4.5t11 5l37 36l37 -36q4 -5 11 -5t11.5 4.5t4.5 11.5t-5 11l-36 37z" />
    <glyph glyph-name="bridge-lock" unicode="bridge&#x2d;lock" horiz-adv-x="640" 
d="M32 384q0 -13 9.5 -22.5t22.5 -9.5h40v-64h-72v-128q40 0 68 -28t28 -68v-64q0 -13 9.5 -22.5t22.5 -9.5h32q13 0 22.5 9.5t9.5 22.5v64q0 40 28 68t68 28q43 0 72 -33q9 15 24 24v25q0 46 33 79t79 33h8v64h40q13 0 22.5 9.5t9.5 22.5t-9.5 22.5t-22.5 9.5h-512
q-13 0 -22.5 -9.5t-9.5 -22.5zM408 352h80v-64h-80v64zM360 288h-80v64h80v-64zM152 352h80v-64h-80v64zM528 208q13 0 22.5 -9.5t9.5 -22.5v-48h-64v48q0 13 9.5 22.5t22.5 9.5zM448 176v-48q-13 0 -22.5 -9.5t-9.5 -22.5v-128q0 -13 9.5 -22.5t22.5 -9.5h160
q13 0 22.5 9.5t9.5 22.5v128q0 13 -9.5 22.5t-22.5 9.5v48q0 33 -23.5 56.5t-56.5 23.5t-56.5 -23.5t-23.5 -56.5z" />
    <glyph glyph-name="bridge-water" unicode="bridge&#x2d;water" horiz-adv-x="576" 
d="M0 352v-36q0 -11 8.5 -19.5t19.5 -8.5q28 0 48 -20t20 -48v-125q20 0 37 -11q29 -21 59 -21v1v128q0 40 28 68t68 28t68 -28t28 -68v-128v-1q30 0 59 21q17 11 37 11v125q0 28 20 48t48 20q11 0 19.5 8.5t8.5 19.5v36q0 13 -9.5 22.5t-22.5 9.5h-512q-13 0 -22.5 -9.5
t-9.5 -22.5zM306 58q-18 13 -37 0q-37 -26 -77 -26t-77 26q-21 14 -40 -2q-22 -18 -50 -25q-13 -3 -20 -14t-4 -24t14 -20t24 -4q29 7 58 25q49 -26 95 -26q39 0 80 19q7 3 16 8q6 -4 16 -8q41 -19 80 -19q46 0 94 26q29 -18 59 -25q6 -2 12.5 -0.5t11.5 4.5t9 8t5 12
q2 8 -0.5 16.5t-8.5 14t-15 7.5q-28 7 -50 25q-19 17 -40 2q-37 -26 -77 -26t-78 26z" />
    <glyph glyph-name="bucket" unicode="bucket" horiz-adv-x="448" 
d="M96 296q0 43 30.5 73.5t73.5 30.5h48q43 0 73.5 -30.5t30.5 -73.5v-8h48v8q0 63 -44.5 107.5t-107.5 44.5h-48q-63 0 -107.5 -44.5t-44.5 -107.5v-8h48v8zM0 224q0 -9 4.5 -16t11.5 -11.5t16 -4.5h5l23 -213q1 -18 15 -30.5t32 -12.5h234q18 0 32 12.5t15 30.5l23 213h5
q13 0 22.5 9.5t9.5 22.5t-9.5 22.5t-22.5 9.5h-384q-13 0 -22.5 -9.5t-9.5 -22.5z" />
    <glyph glyph-name="bugs" unicode="bugs" horiz-adv-x="576" 
d="M164 341q16 -11 23 -29h17l5 21q1 9 9.5 14.5t18 4t15 -10t4.5 -18.5l-8 -40q-2 -8 -8.5 -13.5t-15.5 -5.5h-32v-23l38 -10q16 -4 18 -20l8 -56q1 -10 -5 -17.5t-15.5 -9t-17.5 4.5t-10 16l-5 40l-19 4q-18 -33 -56 -33t-56 33l-18 -5l-6 -40q-2 -9 -9.5 -15t-17.5 -5
q-7 1 -12 5t-7.5 10t-1.5 12l8 56q2 16 18 20l38 10v23h-32q-9 0 -15.5 5.5t-7.5 13.5l-8 40q-2 10 3.5 18.5t14.5 9.5q5 1 10 0t8.5 -3.5t6.5 -6.5t4 -8l4 -21h17q7 18 23 29l-34 73q-4 9 -0.5 18.5t12.5 13.5t18.5 0.5t13.5 -12.5l26 -58l26 58q4 9 13.5 12.5t18.5 -0.5
t12.5 -13.5t-0.5 -18.5zM496 161q8 -17 5 -36l15 -8l14 16q7 7 16.5 7.5t17 -6t8.5 -16.5t-6 -17l-27 -31q-13 -14 -30 -5l-28 16l-11 -20l28 -27q11 -11 6 -26l-22 -53q-3 -9 -12.5 -12.5t-18.5 0t-13 12.5t0 18l15 38l-14 13q-32 -20 -65 -1t-32 57l-18 5l-25 -31
q-6 -8 -16 -9.5t-18 5t-9 16t5 17.5l35 45q10 12 26 8l37 -11l12 20l-28 16q-17 10 -11 29l13 39q4 9 12.5 13.5t18 1t14 -12t1.5 -18.5l-7 -20l15 -8q15 11 34 13l8 80q1 10 8.5 16.5t17.5 5.5t16 -8.5t5 -17.5l-6 -63l52 37q8 5 17.5 3.5t15.5 -9.5t4.5 -18t-9.5 -16z
M496 161z" />
    <glyph glyph-name="building-circle-arrow-right" unicode="building&#x2d;circle&#x2d;arrow&#x2d;right" horiz-adv-x="640" 
d="M0 400v-416q0 -20 14 -34t34 -14h96v80q0 20 14 34t34 14t34 -14t14 -34v-80h96q23 0 37 18q-53 52 -53 126q0 83 64 136v184q0 20 -14 34t-34 14h-288q-20 0 -34 -14t-14 -34zM80 224h32q7 0 11.5 -4.5t4.5 -11.5v-32q0 -7 -4.5 -11.5t-11.5 -4.5h-32q-7 0 -11.5 4.5
t-4.5 11.5v32q0 7 4.5 11.5t11.5 4.5zM160 208q0 7 4.5 11.5t11.5 4.5h32q7 0 11.5 -4.5t4.5 -11.5v-32q0 -7 -4.5 -11.5t-11.5 -4.5h-32q-7 0 -11.5 4.5t-4.5 11.5v32zM272 224h32q7 0 11.5 -4.5t4.5 -11.5v-32q0 -7 -4.5 -11.5t-11.5 -4.5h-32q-7 0 -11.5 4.5t-4.5 11.5
v32q0 7 4.5 11.5t11.5 4.5zM64 336q0 7 4.5 11.5t11.5 4.5h32q7 0 11.5 -4.5t4.5 -11.5v-32q0 -7 -4.5 -11.5t-11.5 -4.5h-32q-7 0 -11.5 4.5t-4.5 11.5v32zM176 352h32q7 0 11.5 -4.5t4.5 -11.5v-32q0 -7 -4.5 -11.5t-11.5 -4.5h-32q-7 0 -11.5 4.5t-4.5 11.5v32
q0 7 4.5 11.5t11.5 4.5zM256 336q0 7 4.5 11.5t11.5 4.5h32q7 0 11.5 -4.5t4.5 -11.5v-32q0 -7 -4.5 -11.5t-11.5 -4.5h-32q-7 0 -11.5 4.5t-4.5 11.5v32zM352 80q0 -39 19.5 -72t52.5 -52.5t72 -19.5t72 19.5t52.5 52.5t19.5 72t-19.5 72t-52.5 53q-17 9 -35 14t-37 5
t-37 -5t-35 -14q-33 -20 -52.5 -53t-19.5 -72zM493 147q11 12 22 0l56 -56q5 -4 5 -11t-5 -11l-56 -56q-4 -5 -11 -5t-11.5 4.5t-4.5 11.5t5 11l28 29h-89q-7 0 -11.5 4.5t-4.5 11.5t4.5 11.5t11.5 4.5h89l-28 29q-5 4 -5 11t5 11zM493 147z" />
    <glyph glyph-name="building-circle-check" unicode="building&#x2d;circle&#x2d;check" horiz-adv-x="640" 
d="M48 448h288q20 0 34 -14t14 -34v-184q-64 -53 -64 -136q0 -74 53 -126q-14 -18 -37 -18h-96v80q0 20 -14 34t-34 14t-34 -14t-14 -34v-80h-96q-20 0 -34 14t-14 34v416q0 20 14 34t34 14zM64 208v-32q0 -7 4.5 -11.5t11.5 -4.5h32q7 0 11.5 4.5t4.5 11.5v32
q0 7 -4.5 11.5t-11.5 4.5h-32q-7 0 -11.5 -4.5t-4.5 -11.5zM176 224q-7 0 -11.5 -4.5t-4.5 -11.5v-32q0 -7 4.5 -11.5t11.5 -4.5h32q7 0 11.5 4.5t4.5 11.5v32q0 7 -4.5 11.5t-11.5 4.5h-32zM256 208v-32q0 -7 4.5 -11.5t11.5 -4.5h32q7 0 11.5 4.5t4.5 11.5v32
q0 7 -4.5 11.5t-11.5 4.5h-32q-7 0 -11.5 -4.5t-4.5 -11.5zM80 352q-7 0 -11.5 -4.5t-4.5 -11.5v-32q0 -7 4.5 -11.5t11.5 -4.5h32q7 0 11.5 4.5t4.5 11.5v32q0 7 -4.5 11.5t-11.5 4.5h-32zM160 336v-32q0 -7 4.5 -11.5t11.5 -4.5h32q7 0 11.5 4.5t4.5 11.5v32
q0 7 -4.5 11.5t-11.5 4.5h-32q-7 0 -11.5 -4.5t-4.5 -11.5zM272 352q-7 0 -11.5 -4.5t-4.5 -11.5v-32q0 -7 4.5 -11.5t11.5 -4.5h32q7 0 11.5 4.5t4.5 11.5v32q0 7 -4.5 11.5t-11.5 4.5h-32zM640 80q0 -39 -19.5 -72t-52.5 -52.5t-72 -19.5t-72 19.5t-52.5 52.5t-19.5 72
t19.5 72t52.5 52.5t72 19.5t72 -19.5t52.5 -52.5t19.5 -72zM563 123q-11 12 -22 0l-61 -60l-29 28q-4 5 -11 5t-11.5 -4.5t-4.5 -11.5t5 -11l40 -40q4 -5 11 -5t11 5l72 72q5 4 5 11t-5 11zM563 123z" />
    <glyph glyph-name="building-circle-exclamation" unicode="building&#x2d;circle&#x2d;exclamation" horiz-adv-x="640" 
d="M48 448h288q20 0 34 -14t14 -34v-184q-64 -53 -64 -136q0 -74 53 -126q-14 -18 -37 -18h-96v80q0 20 -14 34t-34 14t-34 -14t-14 -34v-80h-96q-20 0 -34 14t-14 34v416q0 20 14 34t34 14zM64 208v-32q0 -7 4.5 -11.5t11.5 -4.5h32q7 0 11.5 4.5t4.5 11.5v32
q0 7 -4.5 11.5t-11.5 4.5h-32q-7 0 -11.5 -4.5t-4.5 -11.5zM176 224q-7 0 -11.5 -4.5t-4.5 -11.5v-32q0 -7 4.5 -11.5t11.5 -4.5h32q7 0 11.5 4.5t4.5 11.5v32q0 7 -4.5 11.5t-11.5 4.5h-32zM256 208v-32q0 -7 4.5 -11.5t11.5 -4.5h32q7 0 11.5 4.5t4.5 11.5v32
q0 7 -4.5 11.5t-11.5 4.5h-32q-7 0 -11.5 -4.5t-4.5 -11.5zM80 352q-7 0 -11.5 -4.5t-4.5 -11.5v-32q0 -7 4.5 -11.5t11.5 -4.5h32q7 0 11.5 4.5t4.5 11.5v32q0 7 -4.5 11.5t-11.5 4.5h-32zM160 336v-32q0 -7 4.5 -11.5t11.5 -4.5h32q7 0 11.5 4.5t4.5 11.5v32
q0 7 -4.5 11.5t-11.5 4.5h-32q-7 0 -11.5 -4.5t-4.5 -11.5zM272 352q-7 0 -11.5 -4.5t-4.5 -11.5v-32q0 -7 4.5 -11.5t11.5 -4.5h32q7 0 11.5 4.5t4.5 11.5v32q0 7 -4.5 11.5t-11.5 4.5h-32zM496 -64q-39 0 -72 19.5t-52.5 52.5t-19.5 72t19.5 72t52.5 52.5t72 19.5
t72 -19.5t52.5 -52.5t19.5 -72t-19.5 -72t-52.5 -52.5t-72 -19.5zM496 32q-10 0 -17 -7t-7 -17t7 -17t17 -7t17 7t7 17t-7 17t-17 7zM496 176q-7 0 -11.5 -4.5t-4.5 -11.5v-80q0 -7 4.5 -11.5t11.5 -4.5t11.5 4.5t4.5 11.5v80q0 7 -4.5 11.5t-11.5 4.5z" />
    <glyph glyph-name="building-circle-xmark" unicode="building&#x2d;circle&#x2d;xmark" horiz-adv-x="640" 
d="M48 448h288q20 0 34 -14t14 -34v-184q-64 -53 -64 -136q0 -74 53 -126q-14 -18 -37 -18h-96v80q0 20 -14 34t-34 14t-34 -14t-14 -34v-80h-96q-20 0 -34 14t-14 34v416q0 20 14 34t34 14zM64 208v-32q0 -7 4.5 -11.5t11.5 -4.5h32q7 0 11.5 4.5t4.5 11.5v32
q0 7 -4.5 11.5t-11.5 4.5h-32q-7 0 -11.5 -4.5t-4.5 -11.5zM176 224q-7 0 -11.5 -4.5t-4.5 -11.5v-32q0 -7 4.5 -11.5t11.5 -4.5h32q7 0 11.5 4.5t4.5 11.5v32q0 7 -4.5 11.5t-11.5 4.5h-32zM256 208v-32q0 -7 4.5 -11.5t11.5 -4.5h32q7 0 11.5 4.5t4.5 11.5v32
q0 7 -4.5 11.5t-11.5 4.5h-32q-7 0 -11.5 -4.5t-4.5 -11.5zM80 352q-7 0 -11.5 -4.5t-4.5 -11.5v-32q0 -7 4.5 -11.5t11.5 -4.5h32q7 0 11.5 4.5t4.5 11.5v32q0 7 -4.5 11.5t-11.5 4.5h-32zM160 336v-32q0 -7 4.5 -11.5t11.5 -4.5h32q7 0 11.5 4.5t4.5 11.5v32
q0 7 -4.5 11.5t-11.5 4.5h-32q-7 0 -11.5 -4.5t-4.5 -11.5zM272 352q-7 0 -11.5 -4.5t-4.5 -11.5v-32q0 -7 4.5 -11.5t11.5 -4.5h32q7 0 11.5 4.5t4.5 11.5v32q0 7 -4.5 11.5t-11.5 4.5h-32zM496 -64q-39 0 -72 19.5t-52.5 52.5t-19.5 72t19.5 72t52.5 52.5t72 19.5
t72 -19.5t52.5 -52.5t19.5 -72t-19.5 -72t-52.5 -52.5t-72 -19.5zM555 117q5 4 5 11t-4.5 11.5t-11.5 4.5t-11 -5l-37 -36l-37 36q-4 5 -11 5t-11.5 -4.5t-4.5 -11.5t5 -11l36 -37l-36 -37q-5 -4 -5 -11t4.5 -11.5t11.5 -4.5t11 5l37 36l37 -36q4 -5 11 -5t11.5 4.5
t4.5 11.5t-5 11l-36 37z" />
    <glyph glyph-name="building-flag" unicode="building&#x2d;flag" horiz-adv-x="640" 
d="M48 448h288q20 0 34 -14t14 -34v-416q0 -20 -14 -34t-34 -14h-96v80q0 20 -14 34t-34 14t-34 -14t-14 -34v-80h-96q-20 0 -34 14t-14 34v416q0 20 14 34t34 14zM64 208v-32q0 -7 4.5 -11.5t11.5 -4.5h32q7 0 11.5 4.5t4.5 11.5v32q0 7 -4.5 11.5t-11.5 4.5h-32
q-7 0 -11.5 -4.5t-4.5 -11.5zM176 224q-7 0 -11.5 -4.5t-4.5 -11.5v-32q0 -7 4.5 -11.5t11.5 -4.5h32q7 0 11.5 4.5t4.5 11.5v32q0 7 -4.5 11.5t-11.5 4.5h-32zM256 208v-32q0 -7 4.5 -11.5t11.5 -4.5h32q7 0 11.5 4.5t4.5 11.5v32q0 7 -4.5 11.5t-11.5 4.5h-32
q-7 0 -11.5 -4.5t-4.5 -11.5zM80 352q-7 0 -11.5 -4.5t-4.5 -11.5v-32q0 -7 4.5 -11.5t11.5 -4.5h32q7 0 11.5 4.5t4.5 11.5v32q0 7 -4.5 11.5t-11.5 4.5h-32zM160 336v-32q0 -7 4.5 -11.5t11.5 -4.5h32q7 0 11.5 4.5t4.5 11.5v32q0 7 -4.5 11.5t-11.5 4.5h-32
q-7 0 -11.5 -4.5t-4.5 -11.5zM272 352q-7 0 -11.5 -4.5t-4.5 -11.5v-32q0 -7 4.5 -11.5t11.5 -4.5h32q7 0 11.5 4.5t4.5 11.5v32q0 7 -4.5 11.5t-11.5 4.5h-32zM448 448q13 0 22.5 -9.5t9.5 -22.5h144q7 0 11.5 -4.5t4.5 -11.5v-128q0 -7 -4.5 -11.5t-11.5 -4.5h-144v-320
h-64v480q0 13 9.5 22.5t22.5 9.5z" />
    <glyph glyph-name="building-lock" unicode="building&#x2d;lock" horiz-adv-x="576" 
d="M48 448h288q20 0 34 -14t14 -34v-146q-32 -32 -32 -78v-25q-32 -18 -32 -55v-128q0 -17 9 -32h-89v80q0 20 -14 34t-34 14t-34 -14t-14 -34v-80h-96q-20 0 -34 14t-14 34v416q0 20 14 34t34 14zM64 208v-32q0 -7 4.5 -11.5t11.5 -4.5h32q7 0 11.5 4.5t4.5 11.5v32
q0 7 -4.5 11.5t-11.5 4.5h-32q-7 0 -11.5 -4.5t-4.5 -11.5zM176 224q-7 0 -11.5 -4.5t-4.5 -11.5v-32q0 -7 4.5 -11.5t11.5 -4.5h32q7 0 11.5 4.5t4.5 11.5v32q0 7 -4.5 11.5t-11.5 4.5h-32zM256 208v-32q0 -7 4.5 -11.5t11.5 -4.5h32q7 0 11.5 4.5t4.5 11.5v32
q0 7 -4.5 11.5t-11.5 4.5h-32q-7 0 -11.5 -4.5t-4.5 -11.5zM80 352q-7 0 -11.5 -4.5t-4.5 -11.5v-32q0 -7 4.5 -11.5t11.5 -4.5h32q7 0 11.5 4.5t4.5 11.5v32q0 7 -4.5 11.5t-11.5 4.5h-32zM160 336v-32q0 -7 4.5 -11.5t11.5 -4.5h32q7 0 11.5 4.5t4.5 11.5v32
q0 7 -4.5 11.5t-11.5 4.5h-32q-7 0 -11.5 -4.5t-4.5 -11.5zM272 352q-7 0 -11.5 -4.5t-4.5 -11.5v-32q0 -7 4.5 -11.5t11.5 -4.5h32q7 0 11.5 4.5t4.5 11.5v32q0 7 -4.5 11.5t-11.5 4.5h-32zM464 208q-13 0 -22.5 -9.5t-9.5 -22.5v-48h64v48q0 13 -9.5 22.5t-22.5 9.5z
M384 176q0 33 23.5 56.5t56.5 23.5t56.5 -23.5t23.5 -56.5v-48q13 0 22.5 -9.5t9.5 -22.5v-128q0 -13 -9.5 -22.5t-22.5 -9.5h-160q-13 0 -22.5 9.5t-9.5 22.5v128q0 13 9.5 22.5t22.5 9.5v48z" />
    <glyph glyph-name="building-ngo" unicode="building&#x2d;ngo" horiz-adv-x="384" 
d="M48 448h288q20 0 34 -14t14 -34v-416q0 -20 -14 -34t-34 -14h-96v80q0 20 -14 34t-34 14t-34 -14t-14 -34v-80h-96q-20 0 -34 14t-14 34v416q0 20 14 34t34 14zM64 208v-32q0 -7 4.5 -11.5t11.5 -4.5h32q7 0 11.5 4.5t4.5 11.5v32q0 7 -4.5 11.5t-11.5 4.5h-32
q-7 0 -11.5 -4.5t-4.5 -11.5zM176 224q-7 0 -11.5 -4.5t-4.5 -11.5v-32q0 -7 4.5 -11.5t11.5 -4.5h32q7 0 11.5 4.5t4.5 11.5v32q0 7 -4.5 11.5t-11.5 4.5h-32zM256 208v-32q0 -7 4.5 -11.5t11.5 -4.5h32q7 0 11.5 4.5t4.5 11.5v32q0 7 -4.5 11.5t-11.5 4.5h-32
q-7 0 -11.5 -4.5t-4.5 -11.5zM168 384q-7 0 -11.5 -4.5t-4.5 -11.5v-88q0 -10 7 -17t17 -7h32q10 0 17 7t7 17v24q0 7 -4.5 11.5t-11.5 4.5t-11.5 -4.5t-4.5 -11.5v-16h-16v64h32q7 0 11.5 4.5t4.5 11.5t-4.5 11.5t-11.5 4.5h-48zM304 352q7 0 11.5 -4.5t4.5 -11.5v-32
q0 -7 -4.5 -11.5t-11.5 -4.5t-11.5 4.5t-4.5 11.5v32q0 7 4.5 11.5t11.5 4.5zM256 336v-32q0 -20 14 -34t34 -14t34 14t14 34v32q0 20 -14 34t-34 14t-34 -14t-14 -34zM61 377q-6 10 -17.5 6.5t-11.5 -15.5v-96q0 -7 4.5 -11.5t11.5 -4.5t11.5 4.5t4.5 11.5v43l35 -52
q6 -10 17.5 -6.5t11.5 15.5v96q0 7 -4.5 11.5t-11.5 4.5t-11.5 -4.5t-4.5 -11.5v-43zM61 377z" />
    <glyph glyph-name="building-shield" unicode="building&#x2d;shield" horiz-adv-x="576" 
d="M0 400v-416q0 -20 14 -34t34 -14h96v80q0 20 14 34t34 14t34 -14t14 -34v-80h96q10 0 19 4q-51 38 -74 93t-25 108v3v8v24v32q0 7 4.5 11.5t11.5 4.5h32h38l42 17v159q0 20 -14 34t-34 14h-288q-20 0 -34 -14t-14 -34zM80 224h32q7 0 11.5 -4.5t4.5 -11.5v-32
q0 -7 -4.5 -11.5t-11.5 -4.5h-32q-7 0 -11.5 4.5t-4.5 11.5v32q0 7 4.5 11.5t11.5 4.5zM160 208q0 7 4.5 11.5t11.5 4.5h32q7 0 11.5 -4.5t4.5 -11.5v-32q0 -7 -4.5 -11.5t-11.5 -4.5h-32q-7 0 -11.5 4.5t-4.5 11.5v32zM64 336q0 7 4.5 11.5t11.5 4.5h32q7 0 11.5 -4.5
t4.5 -11.5v-32q0 -7 -4.5 -11.5t-11.5 -4.5h-32q-7 0 -11.5 4.5t-4.5 11.5v32zM176 352h32q7 0 11.5 -4.5t4.5 -11.5v-32q0 -7 -4.5 -11.5t-11.5 -4.5h-32q-7 0 -11.5 4.5t-4.5 11.5v32q0 7 4.5 11.5t11.5 4.5zM256 336q0 7 4.5 11.5t11.5 4.5h32q7 0 11.5 -4.5t4.5 -11.5
v-32q0 -7 -4.5 -11.5t-11.5 -4.5h-32q-7 0 -11.5 4.5t-4.5 11.5v32zM423 222l-120 -48q-15 -6 -15 -22q0 -27 6 -54.5t20 -58.5t42 -58t67 -43q9 -4 18 0q39 16 67 43t42 58t20 58.5t6 54.5q0 16 -15 22l-120 48q-9 4 -18 0zM527 136q-3 -45 -25.5 -86t-69.5 -64v188z" />
    <glyph glyph-name="building-un" unicode="building&#x2d;un" horiz-adv-x="384" 
d="M48 448h288q20 0 34 -14t14 -34v-416q0 -20 -14 -34t-34 -14h-96v80q0 20 -14 34t-34 14t-34 -14t-14 -34v-80h-96q-20 0 -34 14t-14 34v416q0 20 14 34t34 14zM64 208v-32q0 -7 4.5 -11.5t11.5 -4.5h32q7 0 11.5 4.5t4.5 11.5v32q0 7 -4.5 11.5t-11.5 4.5h-32
q-7 0 -11.5 -4.5t-4.5 -11.5zM176 224q-7 0 -11.5 -4.5t-4.5 -11.5v-32q0 -7 4.5 -11.5t11.5 -4.5h32q7 0 11.5 4.5t4.5 11.5v32q0 7 -4.5 11.5t-11.5 4.5h-32zM256 208v-32q0 -7 4.5 -11.5t11.5 -4.5h32q7 0 11.5 4.5t4.5 11.5v32q0 7 -4.5 11.5t-11.5 4.5h-32
q-7 0 -11.5 -4.5t-4.5 -11.5zM237 377q-6 10 -17.5 6.5t-11.5 -15.5v-96q0 -7 4.5 -11.5t11.5 -4.5t11.5 4.5t4.5 11.5v43l35 -52q6 -10 17.5 -6.5t11.5 15.5v96q0 7 -4.5 11.5t-11.5 4.5t-11.5 -4.5t-4.5 -11.5v-43zM112 368q0 7 -4.5 11.5t-11.5 4.5t-11.5 -4.5
t-4.5 -11.5v-64q0 -20 14 -34t34 -14t34 14t14 34v64q0 7 -4.5 11.5t-11.5 4.5t-11.5 -4.5t-4.5 -11.5v-64q0 -7 -4.5 -11.5t-11.5 -4.5t-11.5 4.5t-4.5 11.5v64z" />
    <glyph glyph-name="building-user" unicode="building&#x2d;user" horiz-adv-x="640" 
d="M48 448h288q20 0 34 -14t14 -34v-224v-96q-29 -16 -46.5 -45t-17.5 -64q0 -19 10 -35h-90v80q0 20 -14 34t-34 14t-34 -14t-14 -34v-80h-96q-20 0 -34 14t-14 34v416q0 20 14 34t34 14zM64 208v-32q0 -7 4.5 -11.5t11.5 -4.5h32q7 0 11.5 4.5t4.5 11.5v32q0 7 -4.5 11.5
t-11.5 4.5h-32q-7 0 -11.5 -4.5t-4.5 -11.5zM176 224q-7 0 -11.5 -4.5t-4.5 -11.5v-32q0 -7 4.5 -11.5t11.5 -4.5h32q7 0 11.5 4.5t4.5 11.5v32q0 7 -4.5 11.5t-11.5 4.5h-32zM256 208v-32q0 -7 4.5 -11.5t11.5 -4.5h32q7 0 11.5 4.5t4.5 11.5v32q0 7 -4.5 11.5t-11.5 4.5
h-32q-7 0 -11.5 -4.5t-4.5 -11.5zM80 352q-7 0 -11.5 -4.5t-4.5 -11.5v-32q0 -7 4.5 -11.5t11.5 -4.5h32q7 0 11.5 4.5t4.5 11.5v32q0 7 -4.5 11.5t-11.5 4.5h-32zM160 336v-32q0 -7 4.5 -11.5t11.5 -4.5h32q7 0 11.5 4.5t4.5 11.5v32q0 7 -4.5 11.5t-11.5 4.5h-32
q-7 0 -11.5 -4.5t-4.5 -11.5zM272 352q-7 0 -11.5 -4.5t-4.5 -11.5v-32q0 -7 4.5 -11.5t11.5 -4.5h32q7 0 11.5 4.5t4.5 11.5v32q0 7 -4.5 11.5t-11.5 4.5h-32zM576 176q0 -46 -40 -69q-19 -11 -40 -11t-40 11q-40 23 -40 69t40 69q19 11 40 11t40 -11q40 -23 40 -69z
M352 -29q0 38 27.5 65.5t65.5 27.5h102q38 0 65.5 -27.5t27.5 -65.5q0 -15 -10 -25t-25 -10h-218q-15 0 -25 10t-10 25z" />
    <glyph glyph-name="building-wheat" unicode="building&#x2d;wheat" horiz-adv-x="640" 
d="M0 400v-416q0 -20 14 -34t34 -14h96v80q0 20 14 34t34 14t34 -14t14 -34v-80h96q20 0 34 14t14 34v416q0 20 -14 34t-34 14h-288q-20 0 -34 -14t-14 -34zM80 224h32q7 0 11.5 -4.5t4.5 -11.5v-32q0 -7 -4.5 -11.5t-11.5 -4.5h-32q-7 0 -11.5 4.5t-4.5 11.5v32
q0 7 4.5 11.5t11.5 4.5zM160 208q0 7 4.5 11.5t11.5 4.5h32q7 0 11.5 -4.5t4.5 -11.5v-32q0 -7 -4.5 -11.5t-11.5 -4.5h-32q-7 0 -11.5 4.5t-4.5 11.5v32zM272 224h32q7 0 11.5 -4.5t4.5 -11.5v-32q0 -7 -4.5 -11.5t-11.5 -4.5h-32q-7 0 -11.5 4.5t-4.5 11.5v32
q0 7 4.5 11.5t11.5 4.5zM64 336q0 7 4.5 11.5t11.5 4.5h32q7 0 11.5 -4.5t4.5 -11.5v-32q0 -7 -4.5 -11.5t-11.5 -4.5h-32q-7 0 -11.5 4.5t-4.5 11.5v32zM176 352h32q7 0 11.5 -4.5t4.5 -11.5v-32q0 -7 -4.5 -11.5t-11.5 -4.5h-32q-7 0 -11.5 4.5t-4.5 11.5v32q0 7 4.5 11.5
t11.5 4.5zM256 336q0 7 4.5 11.5t11.5 4.5h32q7 0 11.5 -4.5t4.5 -11.5v-32q0 -7 -4.5 -11.5t-11.5 -4.5h-32q-7 0 -11.5 4.5t-4.5 11.5v32zM640 256h-16q-33 0 -56.5 -23.5t-23.5 -56.5v-16h16q33 0 56.5 23.5t23.5 56.5v16zM640 128v16h-16q-33 0 -56.5 -23.5t-23.5 -56.5
v-16h16q33 0 56.5 23.5t23.5 56.5zM640 16v16h-16q-33 0 -56.5 -23.5t-23.5 -56.5v-16h16q33 0 56.5 23.5t23.5 56.5zM512 -48q0 33 -23.5 56.5t-56.5 23.5h-16v-16q0 -33 23.5 -56.5t56.5 -23.5h16v16zM512 48v16q0 33 -23.5 56.5t-56.5 23.5h-16v-16q0 -33 23.5 -56.5
t56.5 -23.5h16zM512 176q0 33 -23.5 56.5t-56.5 23.5h-16v-16q0 -33 23.5 -56.5t56.5 -23.5h16v16zM528 416q-10 0 -17 -7t-7 -17v-104q0 -10 7 -17t17 -7t17 7t7 17v104q0 10 -7 17t-17 7zM624 352q0 10 -7 17t-17 7t-17 -7t-7 -17v-32q0 -10 7 -17t17 -7t17 7t7 17v32z
M456 376q-10 0 -17 -7t-7 -17v-32q0 -10 7 -17t17 -7t17 7t7 17v32q0 10 -7 17t-17 7z" />
    <glyph glyph-name="burst" unicode="burst" 
d="M38 444l163 -112l32 99q6 17 23 17t23 -17l34 -106l71 25q14 6 25 -5t6 -25l-26 -71l106 -34q17 -6 17 -23t-17 -23l-103 -33l53 -101q8 -15 -4.5 -27.5t-27.5 -4.5l-101 53l-33 -103q-6 -17 -23 -17t-23 17l-33 103l-101 -53q-15 -8 -27.5 4.5t-4.5 27.5l53 101l-103 33
q-17 6 -17 23t17 23l99 32l-112 163q-11 17 3 31t31 3z" />
    <glyph glyph-name="car-on" unicode="car&#x2d;on" 
d="M280 424v-80q0 -10 -7 -17t-17 -7t-17 7t-7 17v80q0 10 7 17t17 7t17 -7t7 -17zM186 224q-11 0 -15 -11l-19 -53h208l-19 53q-4 11 -15 11h-140zM110 235q9 24 29.5 38.5t46.5 14.5h140q26 0 46.5 -14.5t29.5 -38.5l28 -79q15 -7 24.5 -21t9.5 -31v-40v-64v-32
q0 -13 -9.5 -22.5t-22.5 -9.5h-16q-13 0 -22.5 9.5t-9.5 22.5v32h-256v-32q0 -13 -9.5 -22.5t-22.5 -9.5h-16q-13 0 -22.5 9.5t-9.5 22.5v32v64v40q0 17 9.5 31t24.5 21zM128 104q-10 0 -17 -7t-7 -17t7 -17t17 -7t17 7t7 17t-7 17t-17 7zM360 80q0 -10 7 -17t17 -7t17 7
t7 17t-7 17t-17 7t-17 -7t-7 -17zM39 409q7 7 17 7t17 -7l48 -48q7 -7 7 -17t-7 -17t-17 -7t-17 7l-48 48q-7 7 -7 17t7 17zM439 409q7 7 17 7t17 -7t7 -17t-7 -17l-48 -48q-7 -7 -17 -7t-17 7t-7 17t7 17z" />
    <glyph glyph-name="car-tunnel" unicode="car&#x2d;tunnel" 
d="M256 448q106 0 181 -75t75 -181v-192q0 -26 -19 -45t-45 -19h-43q11 10 11 24v112q0 32 -28 49l-21 64q-6 18 -20.5 28.5t-32.5 10.5h-116q-18 0 -32.5 -10.5t-20.5 -28.5l-21 -64q-28 -17 -28 -49v-112q0 -14 11 -24h-43q-26 0 -45 19t-19 45v192q0 106 75 181t181 75z
M363 -64h-214q11 10 11 24v40h192v-40q0 -14 11 -24zM191 170q2 6 7 6h116q5 0 7 -6l14 -42h-158zM168 40q-10 0 -17 7t-7 17t7 17t17 7t17 -7t7 -17t-7 -17t-17 -7zM368 64q0 -10 -7 -17t-17 -7t-17 7t-7 17t7 17t17 7t17 -7t7 -17z" />
    <glyph glyph-name="child-combatant" unicode="child&#x2d;combatant" horiz-adv-x="576" 
d="M176 320q-37 0 -55.5 32t0 64t55.5 32t55.5 -32t0 -64t-55.5 -32zM168 -32q0 -13 -9.5 -22.5t-22.5 -9.5t-22.5 9.5t-9.5 22.5v179l-13 -20q-7 -11 -20 -14t-24 4t-14 20t4 24l52 82q28 45 81 45h12q53 0 81 -45l52 -82q7 -11 4 -24t-14 -20t-24 -4t-20 14l-13 21v-180
q0 -13 -9.5 -22.5t-22.5 -9.5t-22.5 9.5t-9.5 22.5v128h-16v-128zM448 448q7 0 11.5 -4.5t4.5 -11.5v-116q16 -9 16 -28v-109l16 5v56q0 7 4.5 11.5t11.5 4.5h16q7 0 11.5 -4.5t4.5 -11.5v-84q0 -12 -11 -16l-53 -17v-27h48q7 0 11.5 -4.5t4.5 -11.5v-16q0 -7 -4.5 -11.5
t-11.5 -4.5h-44l23 -92q2 -8 -3 -14t-12 -6h-60q-7 0 -11.5 4.5t-4.5 11.5v96h-16q-13 0 -22.5 9.5t-9.5 22.5v144q0 13 9.5 22.5t22.5 9.5v32q0 19 16 28v100q-7 0 -11.5 4.5t-4.5 11.5t4.5 11.5t11.5 4.5h16h16z" />
    <glyph glyph-name="children" unicode="children" horiz-adv-x="640" 
d="M160 448q-37 0 -55.5 -32t0 -64t55.5 -32t55.5 32t0 64t-55.5 32zM88 -32q0 -9 4.5 -16t11.5 -11.5t16 -4.5q13 0 22.5 9.5t9.5 22.5v80h16v-80q0 -13 9.5 -22.5t22.5 -9.5t22.5 9.5t9.5 22.5v80h18q8 0 13 6.5t2 14.5l-31 94l29 -38q7 -11 20.5 -12.5t24 6t12.5 21
t-6 23.5l-59 78q-36 47 -95 47t-95 -47l-59 -78q-7 -10 -5.5 -23.5t12 -21t23.5 -6t22 12.5l28 38l-31 -94q-3 -8 2 -14.5t13 -6.5h18v-80zM480 448q-37 0 -55.5 -32t0 -64t55.5 -32t55.5 32t0 64t-55.5 32zM472 64h16v-96q0 -13 9.5 -22.5t22.5 -9.5t22.5 9.5t9.5 22.5v179
l13 -20q7 -11 20 -14t24 4t14 20t-4 24l-52 82q-28 45 -81 45h-12q-53 0 -81 -45l-52 -82q-7 -11 -4 -24t14 -20t24 -4t20 14l13 21v-180q0 -13 9.5 -22.5t22.5 -9.5t22.5 9.5t9.5 22.5v96z" />
    <glyph glyph-name="circle-nodes" unicode="circle&#x2d;nodes" 
d="M418 290l-37 -208q35 -23 35 -66q0 -33 -23.5 -56.5t-56.5 -23.5t-56.5 23.5t-23.5 56.5q0 12 4 24l-146 128q-16 -8 -34 -8q-33 0 -56.5 23.5t-23.5 56.5t23.5 56.5t56.5 23.5t56 -23l184 73q1 33 24.5 55.5t55.5 22.5q33 0 56.5 -23.5t23.5 -56.5q0 -28 -17.5 -50
t-44.5 -28zM156 216l146 -128q7 4 16 6l37 208q-5 3 -11 9l-184 -73q0 -12 -4 -22z" />
    <glyph glyph-name="clipboard-question" unicode="clipboard&#x2d;question" horiz-adv-x="384" 
d="M192 448q31 0 56 -18t35 -46h37q26 0 45 -19t19 -45v-320q0 -26 -19 -45t-45 -19h-256q-26 0 -45 19t-19 45v320q0 26 19 45t45 19h38q6 19 19.5 33.5t31.5 22.5t39 8zM192 384q-13 0 -22.5 -9.5t-9.5 -22.5t9.5 -22.5t22.5 -9.5t22.5 9.5t9.5 22.5t-9.5 22.5t-22.5 9.5z
M106 219v-2q-2 -4 -1.5 -9t2 -9t5.5 -7.5t8 -4.5q9 -4 18 0.5t13 13.5v2q2 5 8 5h58q6 0 10.5 -4.5t4.5 -10.5q0 -9 -8 -13l-44 -26q-12 -7 -12 -20v-14q0 -10 7 -17t17 -7t17 7t7 17l32 18q32 18 32 55q0 26 -18.5 44.5t-44.5 18.5h-58q-18 0 -32.5 -10.5t-20.5 -26.5z
M160 32q0 -13 9.5 -22.5t22.5 -9.5t22.5 9.5t9.5 22.5t-9.5 22.5t-22.5 9.5t-22.5 -9.5t-9.5 -22.5z" />
    <glyph glyph-name="cloud-showers-water" unicode="cloud&#x2d;showers&#x2d;water" horiz-adv-x="576" 
d="M224 448q-40 0 -68 -28t-28 -68q-26 0 -45 -19t-19 -45t19 -45t45 -19h320q26 0 45 19t19 45t-19 45t-45 19h-2q-5 28 -27 46t-51 18q-33 0 -57 -24q-7 17 -20.5 29.5t-30.5 19.5t-36 7zM141 156q5 8 2.5 17.5t-11 15t-18 3t-14.5 -11.5l-48 -80q-6 -8 -3.5 -17.5t11 -15
t18.5 -3t15 11.5zM468.5 189q-8.5 5 -18 2.5t-15.5 -11.5l-48 -80q-5 -8 -2.5 -17.5t11 -15t18.5 -3t15 11.5l48 80q5 8 2.5 18t-11 15zM253 156q5 8 2.5 17.5t-11 15t-18 3t-14.5 -11.5l-48 -80q-6 -8 -3.5 -17.5t11 -15t18.5 -3t15 11.5zM356.5 189q-8.5 5 -18 2.5
t-14.5 -11.5l-48 -80q-6 -8 -3.5 -17.5t11 -15t18.5 -3t15 11.5l48 80q5 8 2.5 18t-11 15zM306 26q-18 13 -37 0q-37 -26 -77 -26t-77 26q-21 14 -40 -2q-22 -18 -50 -25q-13 -3 -20 -14t-4 -24t14 -20t24 -4q29 7 58 25q49 -26 95 -26q39 0 80 19q7 3 16 8q6 -4 16 -8
q41 -19 80 -19q46 0 94 26q29 -18 59 -25q8 -2 16 0.5t14 8.5t8 14.5t-0.5 17t-8.5 14t-15 7.5q-28 7 -50 25q-19 17 -40 2q-37 -26 -77 -26t-78 26z" />
    <glyph glyph-name="computer" unicode="computer" horiz-adv-x="640" 
d="M384 352h-320v-224h320v224zM64 416h320q26 0 45 -19t19 -45v-224q0 -26 -19 -45t-45 -19h-117l10 -32h75q13 0 22.5 -9.5t9.5 -22.5t-9.5 -22.5t-22.5 -9.5h-256q-13 0 -22.5 9.5t-9.5 22.5t9.5 22.5t22.5 9.5h75l10 32h-117q-26 0 -45 19t-19 45v224q0 26 19 45t45 19z
M528 416h64q20 0 34 -14t14 -34v-352q0 -20 -14 -34t-34 -14h-64q-20 0 -34 14t-14 34v352q0 20 14 34t34 14zM544 352q-7 0 -11.5 -4.5t-4.5 -11.5t4.5 -11.5t11.5 -4.5h32q7 0 11.5 4.5t4.5 11.5t-4.5 11.5t-11.5 4.5h-32zM528 272q0 -7 4.5 -11.5t11.5 -4.5h32
q7 0 11.5 4.5t4.5 11.5t-4.5 11.5t-11.5 4.5h-32q-7 0 -11.5 -4.5t-4.5 -11.5zM560 112q-13 0 -22.5 -9.5t-9.5 -22.5t9.5 -22.5t22.5 -9.5t22.5 9.5t9.5 22.5t-9.5 22.5t-22.5 9.5z" />
    <glyph glyph-name="cubes-stacked" unicode="cubes&#x2d;stacked" horiz-adv-x="448" 
d="M192 384q0 13 9.5 22.5t22.5 9.5h64q13 0 22.5 -9.5t9.5 -22.5v-64q0 -13 -9.5 -22.5t-22.5 -9.5h-64q-13 0 -22.5 9.5t-9.5 22.5v64zM83 241l55 32q12 7 24.5 3.5t19.5 -15.5l32 -55q6 -12 3 -24.5t-15 -19.5l-55 -32q-12 -6 -24.5 -3t-19.5 15l-32 55q-7 12 -3.5 24.5
t15.5 19.5zM288 256h64q13 0 22.5 -9.5t9.5 -22.5v-64q0 -13 -9.5 -22.5t-22.5 -9.5h-64q-13 0 -22.5 9.5t-9.5 22.5v64q0 13 9.5 22.5t22.5 9.5zM352 96h64q13 0 22.5 -9.5t9.5 -22.5v-64q0 -13 -9.5 -22.5t-22.5 -9.5h-64q-13 0 -22.5 9.5t-9.5 22.5v64q0 13 9.5 22.5
t22.5 9.5zM160 64q0 13 9.5 22.5t22.5 9.5h64q13 0 22.5 -9.5t9.5 -22.5v-64q0 -13 -9.5 -22.5t-22.5 -9.5h-64q-13 0 -22.5 9.5t-9.5 22.5v64zM32 96h64q13 0 22.5 -9.5t9.5 -22.5v-64q0 -13 -9.5 -22.5t-22.5 -9.5h-64q-13 0 -22.5 9.5t-9.5 22.5v64q0 13 9.5 22.5
t22.5 9.5z" />
    <glyph glyph-name="envelope-circle-check" unicode="envelope&#x2d;circle&#x2d;check" horiz-adv-x="640" 
d="M48 384h416q20 0 34 -14t14 -34q0 -24 -19 -38l-14 -11q-50 -5 -89 -34.5t-57 -75.5l-58 -43q-19 -14 -38 0l-218 164q-19 14 -19 38q0 20 14 34t34 14zM294 109l27 20q-1 -9 -1 -17q0 -63 40 -112h-296q-26 0 -45 19t-19 45v208l218 -163q17 -13 38 -13t38 13zM640 112
q0 -39 -19.5 -72t-52.5 -52.5t-72 -19.5t-72 19.5t-52.5 52.5t-19.5 72t19.5 72t52.5 52.5t72 19.5t72 -19.5t52.5 -52.5t19.5 -72zM563 155q-11 12 -22 0l-61 -60l-29 28q-4 5 -11 5t-11.5 -4.5t-4.5 -11.5t5 -11l40 -40q4 -5 11 -5t11 5l72 72q5 4 5 11t-5 11zM563 155z
" />
    <glyph glyph-name="explosion" unicode="explosion" horiz-adv-x="576" 
d="M500 437l-175 -281l-13 142q-1 9 -8 15.5t-16 6.5q-6 0 -11.5 -3t-8.5 -8t-4 -11l-13 -142q-2 -1 -5 -2l-102 88q-16 14 -31.5 0.5t-5.5 -30.5l63 -104q-5 -5 -10 -11l-97 30q-6 2 -11.5 1t-10 -4.5t-7.5 -8.5q-9 -19 8 -31l76 -52h80q6 19 19.5 33.5t31.5 22.5t39 8
q31 0 55.5 -18t34.5 -46h72l87 87q15 15 2 31.5t-31 6.5l-97 -55q-3 4 -6 7l137 305q4 9 1 18t-11.5 13.5t-17.5 2t-14 -10.5zM64 0h-32q-13 0 -22.5 -9.5t-9.5 -22.5t9.5 -22.5t22.5 -9.5h512q13 0 22.5 9.5t9.5 22.5t-9.5 22.5t-22.5 9.5h-32h-448zM288 448q-10 0 -17 -7
t-7 -17v-48q0 -10 7 -17t17 -7t17 7t7 17v48q0 10 -7 17t-17 7z" />
    <glyph glyph-name="ferry" unicode="ferry" horiz-adv-x="576" 
d="M224 448q-13 0 -22.5 -9.5t-9.5 -22.5h-75q-16 0 -22 -14t4 -26l21 -24h336l21 24q10 12 4 26t-22 14h-75q0 13 -9.5 22.5t-22.5 9.5h-128zM96 320q-13 0 -22.5 -9.5t-9.5 -22.5v-124q0 -20 12 -37l51 -72l6 -3q25 -17 51 -20h16q26 3 51 20q17 12 37 12t37 -12
q25 -17 51 -20h16q27 3 51 20l6 3l51 72q12 17 12 37v124q0 13 -9.5 22.5t-22.5 9.5h-384zM128 256h320v-96h-320v96zM306 26q-18 13 -37 0q-37 -26 -77 -26t-77 26q-21 14 -40 -2q-22 -18 -50 -25q-13 -3 -20 -14t-4 -24t14 -20t24 -4q29 7 58 25q49 -26 95 -26q39 0 80 19
q7 3 16 8q6 -4 16 -8q41 -19 80 -19q46 0 94 26q29 -18 59 -25q6 -2 12.5 -0.5t11.5 4.5t9 8t5 12q2 8 -0.5 16.5t-8.5 14t-15 7.5q-28 7 -50 25q-19 17 -40 2q-37 -26 -77 -26t-78 26z" />
    <glyph glyph-name="file-circle-exclamation" unicode="file&#x2d;circle&#x2d;exclamation" horiz-adv-x="576" 
d="M0 384v-384q0 -26 19 -45t45 -19h256q5 0 10 1q-34 24 -54 61.5t-20 81.5q0 60 36 107t92 62v39h-128q-13 0 -22.5 9.5t-9.5 22.5v128h-160q-26 0 -45 -19t-19 -45zM384 320l-128 128v-128h128zM432 224q-39 0 -72 -19.5t-52.5 -52.5t-19.5 -72t19.5 -72t52.5 -52.5
t72 -19.5t72 19.5t52.5 52.5t19.5 72t-19.5 72t-52.5 52.5t-72 19.5zM432 -16q-10 0 -17 7t-7 17t7 17t17 7t17 -7t7 -17t-7 -17t-17 -7zM432 176q7 0 11.5 -4.5t4.5 -11.5v-80q0 -7 -4.5 -11.5t-11.5 -4.5t-11.5 4.5t-4.5 11.5v80q0 7 4.5 11.5t11.5 4.5z" />
    <glyph glyph-name="file-circle-minus" unicode="file&#x2d;circle&#x2d;minus" horiz-adv-x="576" 
d="M0 384v-384q0 -26 19 -45t45 -19h256q5 0 10 1q-34 24 -54 61.5t-20 81.5q0 60 36 107t92 62v39h-128q-13 0 -22.5 9.5t-9.5 22.5v128h-160q-26 0 -45 -19t-19 -45zM384 320l-128 128v-128h128zM288 80q0 -39 19.5 -72t52.5 -52.5t72 -19.5t72 19.5t52.5 52.5t19.5 72
t-19.5 72t-52.5 52.5t-72 19.5t-72 -19.5t-52.5 -52.5t-19.5 -72zM512 80q0 -7 -4.5 -11.5t-11.5 -4.5h-128q-7 0 -11.5 4.5t-4.5 11.5t4.5 11.5t11.5 4.5h128q7 0 11.5 -4.5t4.5 -11.5z" />
    <glyph glyph-name="file-circle-question" unicode="file&#x2d;circle&#x2d;question" horiz-adv-x="576" 
d="M0 384v-384q0 -26 19 -45t45 -19h256q5 0 10 1q-34 24 -54 61.5t-20 81.5q0 60 36 107t92 62v39h-128q-13 0 -22.5 9.5t-9.5 22.5v128h-160q-26 0 -45 -19t-19 -45zM384 320l-128 128v-128h128zM432 224q-39 0 -72 -19.5t-52.5 -52.5t-19.5 -72t19.5 -72t52.5 -52.5
t72 -19.5t72 19.5t52.5 52.5t19.5 72t-19.5 72t-52.5 52.5t-72 19.5zM432 -16q-10 0 -17 7t-7 17t7 17t17 7t17 -7t7 -17t-7 -17t-17 -7zM368 126q0 18 12 30t30 12h40q19 0 32.5 -13.5t13.5 -32.5q0 -28 -24 -41l-24 -12v-5q0 -7 -4.5 -11.5t-11.5 -4.5t-11.5 4.5
t-4.5 11.5v15q0 9 9 14l32 17q7 4 7 12q0 6 -4 10t-10 4h-40q-10 0 -10 -10v-6q0 -7 -4.5 -11.5t-11.5 -4.5t-11.5 4.5t-4.5 11.5v6zM368 126z" />
    <glyph glyph-name="file-shield" unicode="file&#x2d;shield" horiz-adv-x="576" 
d="M0 384v-384q0 -26 19 -45t45 -19h256q16 0 30 8q-51 40 -72.5 97.5t-21.5 110.5q0 17 9.5 31.5t25.5 20.5l93 37v47h-128q-13 0 -22.5 9.5t-9.5 22.5v128h-160q-26 0 -45 -19t-19 -45zM384 320l-128 128v-128h128zM423 222l-120 -48q-15 -6 -15 -22q0 -27 6 -54.5
t20 -58.5t42 -58t67 -43q9 -4 18 0q39 16 67 43t42 58t20 58.5t6 54.5q0 16 -15 22l-120 48q-9 4 -18 0zM527 136q-3 -45 -25.5 -86t-69.5 -64v188z" />
    <glyph glyph-name="fire-burner" unicode="fire&#x2d;burner" horiz-adv-x="640" 
d="M294 444q-5 4 -10.5 4t-9.5 -4q-50 -44 -82 -96t-32 -92q0 -66 46.5 -113t113.5 -47q66 0 113 47t47 113q0 32 -24 79q-26 49 -60 81q-10 9 -20 0q-11 -10 -27 -30q-26 31 -55 58zM370 175q-22 -15 -49 -15q-35 0 -58 21t-23 57q0 26 45 82l62 -79l36 42q3 -4 7 -12
q14 -25 8 -52.5t-28 -43.5zM32 160v-96q-13 0 -22.5 -9.5t-9.5 -22.5v-64q0 -13 9.5 -22.5t22.5 -9.5h576q13 0 22.5 9.5t9.5 22.5v64q0 13 -9.5 22.5t-22.5 9.5v96q0 13 -9.5 22.5t-22.5 9.5h-32q-13 0 -22.5 -9.5t-9.5 -22.5t9.5 -22.5t22.5 -9.5v-64h-448v64
q13 0 22.5 9.5t9.5 22.5t-9.5 22.5t-22.5 9.5h-32q-13 0 -22.5 -9.5t-9.5 -22.5zM320 -32q-13 0 -22.5 9.5t-9.5 22.5t9.5 22.5t22.5 9.5t22.5 -9.5t9.5 -22.5t-9.5 -22.5t-22.5 -9.5zM480 0q0 -13 -9.5 -22.5t-22.5 -9.5t-22.5 9.5t-9.5 22.5t9.5 22.5t22.5 9.5t22.5 -9.5
t9.5 -22.5zM192 -32q-13 0 -22.5 9.5t-9.5 22.5t9.5 22.5t22.5 9.5t22.5 -9.5t9.5 -22.5t-9.5 -22.5t-22.5 -9.5z" />
    <glyph glyph-name="fish-fins" unicode="fish&#x2d;fins" horiz-adv-x="576" 
d="M275 410l78 -59q72 -5 137 -53q53 -40 82 -90q9 -16 0 -32q-29 -50 -82 -90q-65 -48 -137 -53l-78 -59q-17 -13 -36 -1t-14 33l9 49q-27 12 -52 31q-21 16 -41 37l-93 -55q-21 -12 -38.5 5.5t-5.5 38.5l46 80l-46 80q-12 21 5.5 38.5t38.5 5.5l93 -55q19 20 41 37
q25 19 52 31l-9 49q-5 22 14 33.5t36 -1.5zM384 192q0 -13 9.5 -22.5t22.5 -9.5t22.5 9.5t9.5 22.5t-9.5 22.5t-22.5 9.5t-22.5 -9.5t-9.5 -22.5z" />
    <glyph glyph-name="flask-vial" unicode="flask&#x2d;vial" horiz-adv-x="640" 
d="M175 59v-1l49 80v246q13 0 22.5 9.5t9.5 22.5t-9.5 22.5t-22.5 9.5h-64h-64h-64q-13 0 -22.5 -9.5t-9.5 -22.5t9.5 -22.5t22.5 -9.5v-288q0 -40 28 -68t68 -28q16 0 32 6q0 28 15 53zM96 384h64v-96h-64v96zM352 448h-32q-13 0 -22.5 -9.5t-9.5 -22.5t9.5 -22.5
t22.5 -9.5v-151l-118 -191q-10 -17 -10 -37q0 -28 20.5 -48.5t48.5 -20.5h310q28 0 48.5 20.5t20.5 48.5q0 20 -10 37l-118 191v151q13 0 22.5 9.5t9.5 22.5t-9.5 22.5t-22.5 9.5h-32h-128zM384 384h64v-160q0 -9 5 -17l49 -79h-171l48 79q5 8 5 17v160z" />
    <glyph glyph-name="glass-water" unicode="glass&#x2d;water" horiz-adv-x="384" 
d="M32 448h320q14 0 23.5 -10t8.5 -24l-29 -404q-2 -31 -25 -52.5t-55 -21.5h-166q-32 0 -55 21.5t-25 52.5l-29 404q-1 13 8.5 23.5t23.5 10.5zM73 292l24 -13q31 -15 62 0q33 17 66 0q31 -15 62 0l24 13l7 92h-252z" />
    <glyph glyph-name="glass-water-droplet" unicode="glass&#x2d;water&#x2d;droplet" horiz-adv-x="384" 
d="M32 448h320q14 0 23.5 -10t8.5 -24l-29 -404q-2 -31 -25 -52.5t-55 -21.5h-166q-32 0 -55 21.5t-25 52.5l-29 404q-1 13 8.5 23.5t23.5 10.5zM83 150l13 -6q32 -16 64 0t64 0t64 0l13 6l17 234h-252zM256 252q0 -25 -19 -42.5t-45 -17.5t-45 17.5t-19 42.5q0 27 52 94
q5 5 12 5t12 -5q52 -67 52 -94z" />
    <glyph glyph-name="group-arrows-rotate" unicode="group&#x2d;arrows&#x2d;rotate" 
d="M201 376q-22 -6 -41 -18v-6q0 -27 -19 -45.5t-45 -18.5h-6q-12 -20 -18 -41q-4 -13 -15.5 -19t-24.5 -2.5t-19 15t-2 24.5q9 32 27 61q-6 12 -6 26q0 26 19 45t45 19q14 0 26 -6q29 18 61 27q9 3 16.5 1t14 -8t9.5 -14q2 -6 1 -12.5t-4 -12t-8 -9.5t-11 -6zM329 437v1
q32 -10 61 -27q12 5 26 5q26 0 45 -18.5t19 -45.5q0 -14 -6 -26q18 -29 27 -61q4 -12 -2.5 -24t-19 -15.5t-24 2.5t-15.5 19q-6 22 -18 41h-6q-27 0 -45.5 19t-18.5 45v6q-20 12 -41 18q-13 4 -19 15.5t-2.5 24.5t15 19t24.5 2zM72 137q6 -21 18 -41h6q27 0 45.5 -19
t18.5 -45v-6q20 -12 41 -18q13 -4 19 -15.5t2.5 -24.5t-15 -19t-24.5 -2q-32 9 -61 27q-12 -6 -26 -6q-26 0 -45 19t-19 45q0 14 6 26q-18 29 -27 61q-4 12 2 24t19 16q9 2 17 0t14 -8t9 -14zM501 119q-9 -32 -27 -61q6 -12 6 -26q0 -26 -19 -45t-45 -19q-14 0 -26 6
q-29 -18 -61 -27q-13 -4 -24.5 2t-15.5 19t2.5 24.5t19.5 15.5q21 6 41 18v6q0 26 18.5 45t45.5 19h6q12 20 18 41q4 13 15.5 19t24 2.5t19 -15.5t2.5 -24zM193 191q0 -39 35 -57q9 -4 12 -13.5t-1.5 -18.5t-14 -12t-18.5 1q-11 6 -20.5 13.5t-17 17t-12.5 20.5t-8 23.5
t-3 25.5q0 43 29 75l-12 11q-4 5 -1.5 11.5t9.5 6.5h60q5 0 8 -3t3 -7v-61q0 -7 -6.5 -9.5t-11.5 2.5l-15 15q-15 -18 -15 -41zM286 250q-9 4 -12 13.5t1.5 18.5t14 12t18.5 -1q18 -10 31.5 -25t21.5 -34.5t8 -40.5q0 -43 -29 -75l11 -12q5 -4 2.5 -10.5t-9.5 -6.5h-61
q-4 0 -7 3t-3 7v61q0 7 6.5 9.5t11.5 -2.5l15 -15q15 18 15 41q0 39 -35 57zM286 250z" />
    <glyph glyph-name="hand-holding-hand" unicode="hand&#x2d;holding&#x2d;hand" horiz-adv-x="576" 
d="M8 240.5q10 -13.5 26 -16t30 7.5l119 88h121q7 0 11.5 -4.5t4.5 -11.5t-4.5 -11.5t-11.5 -4.5h-16h-64q-13 0 -22.5 -9.5t-9.5 -22.5t9.5 -22.5t22.5 -9.5h64h16h78q45 0 80 28l45 36h37q13 0 22.5 9.5t9.5 22.5v64q0 13 -9.5 22.5t-22.5 9.5h-160h-161q-44 0 -80 -27
l-127 -93q-13 -10 -15.5 -26t7.5 -29.5zM382 288h1h-1zM568 143.5q-10 13.5 -26 16t-30 -7.5l-119 -88h-121q-7 0 -11.5 4.5t-4.5 11.5t4.5 11.5t11.5 4.5h16h64q13 0 22.5 9.5t9.5 22.5t-9.5 22.5t-22.5 9.5h-64h-16h-78q-45 0 -80 -28l-45 -36h-37q-13 0 -22.5 -9.5
t-9.5 -22.5v-64q0 -13 9.5 -22.5t22.5 -9.5h160h160q45 0 81 26l127 94q13 10 15.5 26t-7.5 29.5zM194 96h-1h1z" />
    </font>
</defs>
</svg>
